<?xml version="1.0" standalone="no"?>
<!DOCTYPE svg PUBLIC "-//W3C//DTD SVG 1.1//EN" "http://www.w3.org/Graphics/SVG/1.1/DTD/svg11.dtd" >
<svg xmlns="http://www.w3.org/2000/svg" xmlns:xlink="http://www.w3.org/1999/xlink" version="1.1">
<metadata>
Created by FontForge 20150824 at Sat Sep 24 05:20:02 2016
 By Everything Fonts
Copyright (c) 2014 - Xerotex Digital Solutions
To use in Iran only.
</metadata>
<defs>
<font id="XeroSansBold" horiz-adv-x="0" >
  <font-face 
    font-family="XeroSans"
    font-weight="700"
    font-stretch="normal"
    units-per-em="2048"
    panose-1="2 11 6 4 2 2 2 2 2 4"
    ascent="1638"
    descent="-410"
    x-height="1077"
    cap-height="1458"
    bbox="-393 -938 2773 2845"
    underline-thickness="102"
    underline-position="-204"
    unicode-range="U+000D-FEFC"
  />
<missing-glyph horiz-adv-x="569" 
 />
    <glyph glyph-name="uniFEF5" unicode="&#xfedf;&#xfe82;" horiz-adv-x="1386" arabic-form="isolated" 
d="M895 170v1292h168v-1462h-522q-66 0 -120 13.5t-92 46t-59.5 87t-21.5 136.5v1179h168v-1134q0 -86 26.5 -122t118.5 -36h334zM-29 1743q47 47 89 61.5t83 14.5q39 0 93.5 -18.5t101.5 -41.5q49 -23 94 -38t80 -15q53 0 79.5 28.5t37.5 59.5l65 -29q-29 -80 -67.5 -121
t-114.5 -41q-55 0 -105.5 17.5t-97.5 40.5t-94 39t-88 16q-35 0 -58.5 -8t-54.5 -31z" />
    <glyph glyph-name="uniFEF6" unicode="&#xfee0;&#xfe82;" horiz-adv-x="1374" arabic-form="final" 
d="M694 170q37 0 66 4t48.5 19.5t30.5 45t11 80.5v1143h168v-1067q0 -104 42 -164.5t134 -60.5q82 0 82 -82q0 -51 -19.5 -69.5t-62.5 -18.5q-80 0 -128 38t-64 95q-37 -84 -118 -108.5t-208 -24.5h-207q-66 0 -120 13.5t-92 46t-59.5 87t-21.5 136.5v1179h168v-1134
q0 -86 26.5 -122t119.5 -36h204zM-96 1743q47 47 89 61.5t83 14.5q39 0 93.5 -18.5t101.5 -41.5q49 -23 94 -38t80 -15q53 0 79.5 28.5t37.5 59.5l65 -29q-29 -80 -67.5 -121t-114.5 -41q-55 0 -105.5 17.5t-97.5 40.5t-94 39t-88 16q-35 0 -58.5 -8t-54.5 -31z" />
    <glyph glyph-name="uniFEF7" unicode="&#xfedf;&#xfe84;" horiz-adv-x="1386" arabic-form="isolated" 
d="M747 170v1292h168v-1462h-522q-66 0 -120 13.5t-92 46t-59.5 87t-21.5 136.5v1179h168v-1134q0 -86 26.5 -122t118.5 -36h334zM373 1605h-375v93h92q-29 47 -29 104q0 90 53.5 136t121.5 46q35 0 60.5 -4t37.5 -14v-94q-41 18 -88 18q-49 0 -71.5 -28.5t-22.5 -63.5
q0 -41 26.5 -70.5t79.5 -29.5h115v-93z" />
    <glyph glyph-name="uniFEF8" unicode="&#xfee0;&#xfe84;" horiz-adv-x="1374" arabic-form="final" 
d="M598 170q37 0 66 4t48.5 19.5t30.5 45t11 80.5v1143h168v-1067q0 -104 42 -164.5t134 -60.5q82 0 82 -82q0 -51 -19.5 -69.5t-62.5 -18.5q-80 0 -128 38t-64 95q-37 -84 -118 -108.5t-208 -24.5h-207q-66 0 -120 13.5t-92 46t-59.5 87t-21.5 136.5v1179h168v-1134
q0 -86 26.5 -122t119.5 -36h204zM342 1605h-375v93h92q-29 47 -29 104q0 90 53.5 136t121.5 46q35 0 60.5 -4t37.5 -14v-94q-41 18 -88 18q-49 0 -71.5 -28.5t-22.5 -63.5q0 -41 26.5 -70.5t79.5 -29.5h115v-93z" />
    <glyph glyph-name="uniFEF9" unicode="&#xfedf;&#xfe88;" horiz-adv-x="1386" arabic-form="isolated" 
d="M727 170v1292h168v-1462h-522q-66 0 -120 13.5t-92 46t-59.5 87t-21.5 136.5v1179h168v-1134q0 -86 26.5 -122t118.5 -36h334zM344 -510h-375v94h92q-29 47 -29 103q0 92 53.5 138t121.5 46q35 0 60.5 -4t37.5 -14v-97q-41 18 -88 19q-49 0 -71.5 -29t-22.5 -63
q0 -41 26.5 -70t79.5 -29h115v-94z" />
    <glyph glyph-name="uniFEFA" unicode="&#xfee0;&#xfe88;" horiz-adv-x="1374" arabic-form="final" 
d="M598 170q37 0 66 4t48.5 19.5t30.5 45t11 80.5v1143h168v-1067q0 -104 42 -164.5t134 -60.5q82 0 82 -82q0 -51 -19.5 -69.5t-62.5 -18.5q-80 0 -128 38t-64 95q-37 -84 -118 -108.5t-208 -24.5h-207q-66 0 -120 13.5t-92 46t-59.5 87t-21.5 136.5v1179h168v-1134
q0 -86 26.5 -122t119.5 -36h204zM334 -510h-375v94h92q-29 47 -29 103q0 92 53.5 138t121.5 46q35 0 60.5 -4t37.5 -14v-97q-41 18 -88 19q-49 0 -71.5 -29t-22.5 -63q0 -41 26.5 -70t79.5 -29h115v-94z" />
    <glyph glyph-name="uniFEFB" unicode="&#xfedf;&#xfe8e;" horiz-adv-x="1386" arabic-form="isolated" 
d="M1073 170v1292h168v-1462h-522q-66 0 -120 13.5t-92 46t-59.5 87t-21.5 136.5v1179h168v-1134q0 -86 26.5 -122t118.5 -36h334z" />
    <glyph glyph-name="uniFEFC" unicode="&#xfee0;&#xfe8e;" horiz-adv-x="1374" arabic-form="final" 
d="M872 170q37 0 66 4t48.5 19.5t30.5 45t11 80.5v1143h168v-1067q0 -104 42 -164.5t134 -60.5q82 0 82 -82q0 -51 -19.5 -69.5t-62.5 -18.5q-80 0 -128 38t-64 95q-37 -84 -118 -108.5t-208 -24.5h-207q-66 0 -120 13.5t-92 46t-59.5 87t-21.5 136.5v1179h168v-1134
q0 -86 26.5 -122t119.5 -36h204z" />
    <glyph glyph-name="uniFEDF_uniFB51.rlig" unicode="&#xfedf;&#xfb51;" horiz-adv-x="1386" 
d="M735 170v1292h168v-1462h-522q-66 0 -120 13.5t-92 46t-59.5 87t-21.5 136.5v1179h168v-1134q0 -86 26.5 -122t118.5 -36h334zM352 1649v29q0 35 -15.5 60.5t-60.5 25.5q-43 0 -82 -34t-55 -81h213zM137 1747q61 86 150 86q59 0 93 -37.5t34 -105.5v-108h-416v67h73v164
h66v-66z" />
    <glyph glyph-name="uniFEE0_uniFB51.rlig" unicode="&#xfee0;&#xfb51;" horiz-adv-x="1374" 
d="M616 170q37 0 66 4t48.5 19.5t30.5 45t11 80.5v1143h168v-1067q0 -104 42 -164.5t134 -60.5q82 0 82 -82q0 -51 -19.5 -69.5t-62.5 -18.5q-80 0 -128 38t-64 95q-37 -84 -118 -108.5t-208 -24.5h-207q-66 0 -120 13.5t-92 46t-59.5 87t-21.5 136.5v1179h168v-1134
q0 -86 26.5 -122t119.5 -36h204zM434 1649v29q0 35 -15.5 60.5t-60.5 25.5q-43 0 -82 -34t-55 -81h213zM219 1747q61 86 150 86q59 0 93 -37.5t34 -105.5v-108h-416v67h73v164h66v-66z" />
    <glyph glyph-name="uni06C0.fina" unicode="&#x6c0;" horiz-adv-x="950" arabic-form="final" 
d="M170 535q0 -86 54.5 -139.5t172.5 -53.5q45 0 97.5 10t93.5 27v364h-180q-98 0 -168 -49.5t-70 -158.5zM383 168q-49 0 -113.5 14.5t-123 52t-99.5 106.5t-41 179q0 111 39 185.5t100.5 121.5t136 67.5t148.5 20.5h326v-587q0 -86 26.5 -122t118.5 -36h49q82 0 82 -82
q0 -51 -19.5 -69.5t-62.5 -18.5h-69q-53 0 -101.5 9t-86.5 33t-64.5 62.5t-34.5 100.5q-45 -16 -101.5 -26.5t-109.5 -10.5zM600 1124h-375v93h92q-29 47 -29 104q0 90 53.5 136t121.5 46q35 0 60.5 -4t37.5 -14v-94q-41 18 -88 18q-49 0 -71.5 -28.5t-22.5 -63.5
q0 -41 26.5 -70.5t79.5 -29.5h115v-93z" />
    <glyph glyph-name="uni06C2.fina" unicode="&#x6c2;" horiz-adv-x="587" 
d="M553 0q-78 0 -118 35t-67.5 78t-54 77.5t-77.5 34.5q-47 0 -76 -48t-29 -140q0 -41 6 -86h-131q-6 45 -6 92q0 74 17.5 139.5t50 113.5t77.5 75.5t99 27.5q66 0 99.5 -35.5t60 -78.5t59.5 -79t100 -36h25q82 0 82 -82q0 -51 -19.5 -69.5t-62.5 -18.5h-35zM361 604h-375
v93h92q-29 47 -29 104q0 90 53.5 136t121.5 46q35 0 60.5 -4t37.5 -14v-94q-41 18 -88 18q-49 0 -71.5 -28.5t-22.5 -63.5q0 -41 26.5 -70.5t79.5 -29.5h115v-93z" />
    <glyph glyph-name="uni06C3.fina" unicode="&#x6c3;" horiz-adv-x="950" 
d="M170 535q0 -86 54.5 -139.5t172.5 -53.5q45 0 97.5 10t93.5 27v364h-180q-98 0 -168 -49.5t-70 -158.5zM383 168q-49 0 -113.5 14.5t-123 52t-99.5 106.5t-41 179q0 111 39 185.5t100.5 121.5t136 67.5t148.5 20.5h326v-587q0 -86 26.5 -122t118.5 -36h49q82 0 82 -82
q0 -51 -19.5 -69.5t-62.5 -18.5h-69q-53 0 -101.5 9t-86.5 33t-64.5 62.5t-34.5 100.5q-45 -16 -101.5 -26.5t-109.5 -10.5zM215 1289q0 45 32 76.5t77 31.5t76.5 -31.5t31.5 -76.5t-31.5 -77t-76.5 -32t-77 32t-32 77zM481 1289q0 45 32 76.5t77 31.5t76.5 -31.5
t31.5 -76.5t-31.5 -77t-76.5 -32t-77 32t-32 77z" />
    <glyph glyph-name="afii57534.fina" unicode="&#x6d5;" horiz-adv-x="950" 
d="M170 535q0 -86 54.5 -139.5t172.5 -53.5q45 0 97.5 10t93.5 27v364h-180q-98 0 -168 -49.5t-70 -158.5zM383 168q-49 0 -113.5 14.5t-123 52t-99.5 106.5t-41 179q0 111 39 185.5t100.5 121.5t136 67.5t148.5 20.5h326v-587q0 -86 26.5 -122t118.5 -36h49q82 0 82 -82
q0 -51 -19.5 -69.5t-62.5 -18.5h-69q-53 0 -101.5 9t-86.5 33t-64.5 62.5t-34.5 100.5q-45 -16 -101.5 -26.5t-109.5 -10.5z" />
    <glyph glyph-name="uniFB51" unicode="&#x671;" horiz-adv-x="489" arabic-form="final" 
d="M571 88q0 -51 -19.5 -69.5t-62.5 -18.5h-53q-66 0 -120 13.5t-92 46t-59.5 87t-21.5 136.5v1179h168v-1134q0 -86 27 -122t119 -36h32q82 0 82 -82zM389 1669v29q0 35 -15.5 60.5t-60.5 25.5q-43 0 -82 -34t-55 -81h213zM174 1767q61 86 150 86q59 0 93 -37.5t34 -105.5
v-108h-416v67h73v164h66v-66z" />
    <glyph glyph-name="uniFB57" unicode="&#x67e;" horiz-adv-x="1832" arabic-form="final" 
d="M1833 0q-80 0 -129 38t-66 95q-18 -43 -48.5 -68.5t-77 -40t-112 -19.5t-153.5 -5h-833q-119 0 -198 16.5t-127 52t-68.5 92t-20.5 138.5v317h168v-256q0 -63 15.5 -101t52 -57.5t100 -25.5t162.5 -6h747q68 0 115 4t74.5 19.5t40 45t12.5 80.5v469h168v-393q0 -51 7 -93
t27.5 -70.5t55.5 -45t88 -16.5q82 0 82 -82q0 -51 -19.5 -69.5t-62.5 -18.5zM1077 -309q0 -45 -31.5 -77t-76.5 -32t-77 32t-32 77t32 76.5t77 31.5t76.5 -31.5t31.5 -76.5zM811 -309q0 -45 -31.5 -77t-76.5 -32t-77 32t-32 77t32 76.5t77 31.5t76.5 -31.5t31.5 -76.5z
M940 -555q0 -45 -31.5 -77t-76.5 -32t-77 32t-32 77t32 77t77 32t76.5 -32t31.5 -77z" />
    <glyph glyph-name="uniFB58" unicode="&#x67e;" horiz-adv-x="630" arabic-form="initial" 
d="M0 0q-82 0 -82 82q0 51 19.5 69.5t62.5 18.5h319v618h168v-788h-487zM526 -309q0 -45 -31.5 -77t-76.5 -32t-77 32t-32 77t32 76.5t77 31.5t76.5 -31.5t31.5 -76.5zM260 -309q0 -45 -31.5 -77t-76.5 -32t-77 32t-32 77t32 76.5t77 31.5t76.5 -31.5t31.5 -76.5zM389 -555
q0 -45 -31.5 -77t-76.5 -32t-77 32t-32 77t32 77t77 32t76.5 -32t31.5 -77z" />
    <glyph glyph-name="uniFB59" unicode="&#x67e;" horiz-adv-x="671" arabic-form="medial" 
d="M0 0q-82 0 -82 82q0 51 19.5 69.5t62.5 18.5h137q49 0 84 4t58.5 19.5t35 45t11.5 80.5v469h168v-393q0 -51 7 -93t27.5 -70.5t55 -45t88.5 -16.5q82 0 82 -82q0 -51 -19.5 -69.5t-62.5 -18.5q-80 0 -129 38t-66 95q-37 -84 -115.5 -108.5t-193.5 -24.5h-168zM585 -309
q0 -45 -31.5 -77t-76.5 -32t-77 32t-32 77t32 76.5t77 31.5t76.5 -31.5t31.5 -76.5zM319 -309q0 -45 -31.5 -77t-76.5 -32t-77 32t-32 77t32 76.5t77 31.5t76.5 -31.5t31.5 -76.5zM448 -555q0 -45 -31.5 -77t-76.5 -32t-77 32t-32 77t32 77t77 32t76.5 -32t31.5 -77z" />
    <glyph glyph-name="uniFB67" unicode="&#x679;" horiz-adv-x="1832" arabic-form="final" 
d="M1032 915v39q0 43 -19.5 76t-74.5 33q-57 0 -105.5 -44t-70.5 -104h270zM758 1042q80 109 192 109q76 0 119 -48t43 -134v-140h-532v86h96v424h82v-297zM1833 0q-80 0 -129 38t-66 95q-18 -43 -48.5 -68.5t-77 -40t-112 -19.5t-153.5 -5h-833q-119 0 -198 16.5t-127 52
t-68.5 92t-20.5 138.5v317h168v-256q0 -63 15.5 -101t52 -57.5t100 -25.5t162.5 -6h747q68 0 115 4t74.5 19.5t40 45t12.5 80.5v469h168v-393q0 -51 7 -93t27.5 -70.5t55.5 -45t88 -16.5q82 0 82 -82q0 -51 -19.5 -69.5t-62.5 -18.5z" />
    <glyph glyph-name="uniFB68" unicode="&#x679;" horiz-adv-x="630" arabic-form="initial" 
d="M520 1038v39q0 43 -19.5 76t-74.5 33q-57 0 -105.5 -44t-70.5 -104h270zM246 1165q80 109 192 109q76 0 119 -48t43 -134v-140h-532v86h96v424h82v-297zM0 0q-82 0 -82 82q0 51 19.5 69.5t62.5 18.5h319v618h168v-788h-487z" />
    <glyph glyph-name="uniFB69" unicode="&#x679;" horiz-adv-x="671" arabic-form="medial" 
d="M532 1038v39q0 43 -19 76t-75 33q-57 0 -105 -44t-71 -104h270zM258 1165q80 109 193 109q76 0 118.5 -48t42.5 -134v-140h-532v86h96v424h82v-297zM0 0q-82 0 -82 82q0 51 19.5 69.5t62.5 18.5h137q49 0 84 4t58.5 19.5t35 45t11.5 80.5v469h168v-393q0 -51 7 -93
t27.5 -70.5t55 -45t88.5 -16.5q82 0 82 -82q0 -51 -19.5 -69.5t-62.5 -18.5q-80 0 -129 38t-66 95q-37 -84 -115.5 -108.5t-193.5 -24.5h-168z" />
    <glyph glyph-name="uniFB6B" unicode="&#x6a4;" horiz-adv-x="2084" arabic-form="final" 
d="M414 0q-119 0 -198 16.5t-127 52t-68.5 92t-20.5 138.5v317h168v-256q0 -63 15.5 -101t52 -57.5t100 -25.5t162.5 -6h710q-23 43 -39 95t-16 120q0 80 26.5 158t78 138t126 98t172.5 38q113 0 184.5 -41t113.5 -104.5t58.5 -140t16.5 -150.5v-211h156q82 0 82 -82
q0 -51 -19.5 -69.5t-62.5 -18.5h-1671zM1313 412q0 -125 73.5 -183.5t180.5 -58.5h196v205q0 49 -9 99t-33.5 90t-67.5 65.5t-109 25.5q-55 0 -98 -19.5t-73 -52t-45 -77.5t-15 -94zM1284 1133q0 45 32 76.5t77 31.5t76.5 -31.5t31.5 -76.5t-31.5 -77t-76.5 -32t-77 32
t-32 77zM1550 1133q0 45 32 76.5t77 31.5t76.5 -31.5t31.5 -76.5t-31.5 -77t-76.5 -32t-77 32t-32 77zM1421 1378q0 45 32 77t77 32t76.5 -32t31.5 -77t-31.5 -76.5t-76.5 -31.5t-77 31.5t-32 76.5z" />
    <glyph glyph-name="uniFB6C" unicode="&#x6a4;" horiz-adv-x="1054" arabic-form="initial" 
d="M356 1133q0 45 32 76.5t77 31.5t76.5 -31.5t31.5 -76.5t-31.5 -77t-76.5 -32t-77 32t-32 77zM622 1133q0 45 32 76.5t77 31.5t76.5 -31.5t31.5 -76.5t-31.5 -77t-76.5 -32t-77 32t-32 77zM493 1378q0 45 32 77t77 32t76.5 -32t31.5 -77t-31.5 -76.5t-76.5 -31.5t-77 31.5
t-32 76.5zM361 412q0 -125 73.5 -183.5t180.5 -58.5h196v205q0 49 -9 99t-33.5 90t-67.5 65.5t-109 25.5q-55 0 -98 -19.5t-72.5 -52t-45 -77.5t-15.5 -94zM23 0q-82 0 -82 82q0 51 19.5 69.5t62.5 18.5h233q-23 43 -39 95t-16 120q0 80 26.5 158t78 138t126 98t173.5 38
q113 0 184.5 -41t113.5 -104.5t58 -140t16 -150.5v-381h-954z" />
    <glyph glyph-name="uniFB6D" unicode="&#x6a4;" horiz-adv-x="1011" arabic-form="medial" 
d="M319 1133q0 45 32 76.5t77 31.5t76.5 -31.5t31.5 -76.5t-31.5 -77t-76.5 -32t-77 32t-32 77zM585 1133q0 45 32 76.5t77 31.5t76.5 -31.5t31.5 -76.5t-31.5 -77t-76.5 -32t-77 32t-32 77zM456 1378q0 45 32 77t77 32t76.5 -32t31.5 -77t-31.5 -76.5t-76.5 -31.5t-77 31.5
t-32 76.5zM-2 0q-82 0 -82 82q0 51 19.5 69.5t62.5 18.5h233q-23 43 -39 95t-16 120q0 80 26.5 158t78 138t126 98t173.5 38q113 0 184.5 -41t113.5 -104.5t58 -140t16 -150.5v-211h156q82 0 82 -82q0 -51 -19.5 -69.5t-62.5 -18.5h-1110zM336 412q0 -125 73.5 -183.5
t180.5 -58.5h196v205q0 49 -9 99t-33.5 90t-67.5 65.5t-109 25.5q-55 0 -98 -19.5t-72.5 -52t-45 -77.5t-15.5 -94z" />
    <glyph glyph-name="uniFB7B" unicode="&#x686;" horiz-adv-x="1304" arabic-form="final" 
d="M561 0q-66 0 -133.5 -13.5t-123.5 -47t-92 -94t-36 -154.5q0 -88 32 -151.5t87 -104.5t128 -60.5t157 -19.5h419v-174h-413q-131 0 -238.5 30.5t-184.5 92t-120 153.5t-43 215q0 147 51 243.5t132 153t181.5 79t198.5 22.5h436q0 131 -34.5 221t-94 146.5t-139.5 82
t-168 25.5q-59 0 -125.5 -11t-109.5 -24v164q41 12 108.5 27.5t147.5 15.5q154 0 264 -51t183 -140t108 -207t37 -249h129q82 0 81 -82q0 -51 -19 -69.5t-62 -18.5h-744zM876 -215q0 -45 -31.5 -77t-76.5 -32t-77 32t-32 77t32 76.5t77 31.5t76.5 -31.5t31.5 -76.5z
M610 -215q0 -45 -31.5 -77t-76.5 -32t-77 32t-32 77t32 76.5t77 31.5t76.5 -31.5t31.5 -76.5zM739 -461q0 -45 -31.5 -77t-76.5 -32t-77 32t-32 77t32 77t77 32t76.5 -32t31.5 -77z" />
    <glyph glyph-name="uniFB7C" unicode="&#x686;" horiz-adv-x="1099" arabic-form="initial" 
d="M821 170q0 131 -34.5 221t-94 146.5t-139.5 82t-168 25.5q-59 0 -125.5 -11t-109.5 -24v164q41 12 108.5 27.5t147.5 15.5q156 0 268 -53t184 -144.5t105.5 -213t33.5 -256.5v-150h-997q-82 0 -82 82q0 51 19.5 69.5t62.5 18.5h821zM686 -309q0 -45 -31.5 -77t-76.5 -32
t-77 32t-32 77t32 76.5t77 31.5t76.5 -31.5t31.5 -76.5zM420 -309q0 -45 -31.5 -77t-76.5 -32t-77 32t-32 77t32 76.5t77 31.5t76.5 -31.5t31.5 -76.5zM549 -555q0 -45 -31.5 -77t-76.5 -32t-77 32t-32 77t32 77t77 32t76.5 -32t31.5 -77z" />
    <glyph glyph-name="uniFB7D" unicode="&#x686;" horiz-adv-x="1126" arabic-form="medial" 
d="M0 0q-82 0 -82 82q0 51 19.5 69.5t62.5 18.5h821q0 131 -34.5 221t-94 146.5t-139.5 82t-168 25.5q-59 0 -125.5 -11t-109.5 -24v164q41 12 108.5 27.5t147.5 15.5q154 0 264 -51t183 -140t107.5 -207t36.5 -249h127q82 0 82 -82q0 -51 -19.5 -69.5t-62.5 -18.5h-1124z
M686 -309q0 -45 -31.5 -77t-76.5 -32t-77 32t-32 77t32 76.5t77 31.5t76.5 -31.5t31.5 -76.5zM420 -309q0 -45 -31.5 -77t-76.5 -32t-77 32t-32 77t32 76.5t77 31.5t76.5 -31.5t31.5 -76.5zM549 -555q0 -45 -31.5 -77t-76.5 -32t-77 32t-32 77t32 77t77 32t76.5 -32
t31.5 -77z" />
    <glyph glyph-name="uniFB89" unicode="&#x688;" horiz-adv-x="958" arabic-form="final" 
d="M670 1106v39q0 43 -19.5 75.5t-75.5 32.5q-57 0 -105 -44t-71 -103h271zM395 1233q80 109 193 108q76 0 119 -48t43 -134v-139h-533v86h96v424h82v-297zM958 0q-84 0 -141 35t-115 125q-23 -55 -58.5 -88t-79.5 -48.5t-93 -19.5t-98 -4h-312v170h367q86 0 132 21.5
t46 62.5q0 39 -20.5 78t-50.5 84l-218 321l158 99l246 -408q41 -68 71.5 -117t58.5 -79.5t53.5 -46t53.5 -15.5q82 0 82 -82q0 -51 -19.5 -69.5t-62.5 -18.5z" />
    <glyph glyph-name="uniFB8B" unicode="&#x698;" horiz-adv-x="636" arabic-form="final" 
d="M637 0q-68 0 -113 30.5t-67 71.5q0 -147 -17.5 -248.5t-66.5 -164t-135 -90t-224 -27.5v170q100 0 156.5 21.5t84.5 69.5t33 123t5 181v549h166v-291q0 -104 38 -164.5t140 -60.5q82 0 82 -82q0 -51 -19.5 -69.5t-62.5 -18.5zM131 1014q0 45 32 76.5t77 31.5t76.5 -31.5
t31.5 -76.5t-31.5 -77t-76.5 -32t-77 32t-32 77zM397 1014q0 45 32 76.5t77 31.5t76.5 -31.5t31.5 -76.5t-31.5 -77t-76.5 -32t-77 32t-32 77zM268 1259q0 45 32 77t77 32t76.5 -32t31.5 -77t-31.5 -76.5t-76.5 -31.5t-77 31.5t-32 76.5z" />
    <glyph glyph-name="uniFB8D" unicode="&#x691;" horiz-adv-x="681" arabic-form="final" 
d="M500 1038v39q0 43 -19.5 76t-74.5 33q-57 0 -105.5 -44t-71.5 -104h271zM225 1165q80 109 193 109q76 0 119 -48t43 -134v-140h-533v86h96v424h82v-297zM637 0q-68 0 -113 30.5t-67 71.5q0 -147 -17.5 -248.5t-66.5 -164t-135 -90t-224 -27.5v170q100 0 156.5 21.5
t84.5 69.5t33 123t5 181v549h166v-291q0 -104 38 -164.5t140 -60.5q82 0 82 -82q0 -51 -19.5 -69.5t-62.5 -18.5z" />
    <glyph glyph-name="uniFB8F" unicode="&#x6a9;" horiz-adv-x="1861" arabic-form="final" 
d="M1862 0q-43 0 -79 5t-66.5 21.5t-58.5 48t-52 85.5h-9q-39 -96 -131 -128t-225 -32h-827q-119 0 -198 16.5t-127 52t-68.5 92t-20.5 138.5v317h168v-256q0 -63 15.5 -101t52 -57.5t100 -25.5t162.5 -6h780q113 0 162 36t49 95q0 55 -45 124t-125 139.5t-187.5 139
t-232.5 123.5q2 25 9 51.5t16.5 49t19.5 38t19 19.5l766 330v-170l-603 -266q217 -111 345 -236t171 -250q25 -72 47.5 -114.5t48 -67.5t55.5 -33t69 -8q82 0 82 -82q0 -51 -19.5 -69.5t-62.5 -18.5z" />
    <glyph glyph-name="uniFB90" unicode="&#x6a9;" horiz-adv-x="985" arabic-form="initial" 
d="M0 0q-82 0 -82 82q0 51 19.5 69.5t62.5 18.5h489q76 0 126.5 26.5t50.5 102.5q0 53 -50.5 121.5t-133.5 139.5t-190.5 139.5t-219.5 123.5q2 25 12 50.5t22.5 47t25.5 38t22 22.5l749 330v-166l-602 -266q143 -84 243.5 -164t163 -154t91 -142.5t28.5 -129.5
q0 -43 -13 -94.5t-50 -94.5t-104.5 -71.5t-174.5 -28.5h-485z" />
    <glyph glyph-name="uniFB91" unicode="&#x6a9;" horiz-adv-x="1042" arabic-form="medial" 
d="M0 0q-82 0 -82 82q0 51 19.5 69.5t62.5 18.5h459q113 0 162 36t49 95q0 55 -45 124t-125 139.5t-187.5 139t-232.5 123.5q2 25 9 51.5t16.5 49t19.5 38t18 19.5l766 330v-170l-602 -266q217 -111 345 -236t171 -250q25 -72 47.5 -114.5t48 -67.5t55.5 -33t68 -8
q82 0 82 -82q0 -51 -19.5 -69.5t-62.5 -18.5t-78.5 5t-66.5 21.5t-58.5 48t-52.5 85.5h-8q-39 -96 -131 -128t-225 -32h-422z" />
    <glyph glyph-name="uniFB93" unicode="&#x6af;" horiz-adv-x="1861" arabic-form="final" 
d="M1862 0q-43 0 -79 5t-66.5 21.5t-58.5 48t-52 85.5h-9q-39 -96 -131 -128t-225 -32h-827q-119 0 -198 16.5t-127 52t-68.5 92t-20.5 138.5v317h168v-256q0 -63 15.5 -101t52 -57.5t100 -25.5t162.5 -6h780q113 0 162 36t49 95q0 55 -45 124t-125 139.5t-187.5 139
t-232.5 123.5q2 25 9 51.5t16.5 49t19.5 38t19 19.5l766 330v-170l-603 -266q217 -111 345 -236t171 -250q25 -72 47.5 -114.5t48 -67.5t55.5 -33t69 -8q82 0 82 -82q0 -51 -19.5 -69.5t-62.5 -18.5zM934 1073q0 29 11 59.5t26.5 56t33 45t29.5 26.5l696 317v-154z" />
    <glyph glyph-name="uniFB94" unicode="&#x6af;" horiz-adv-x="985" arabic-form="initial" 
d="M0 0q-82 0 -82 82q0 51 19.5 69.5t62.5 18.5h489q76 0 126.5 26.5t50.5 102.5q0 53 -50.5 121.5t-133.5 139.5t-190.5 139.5t-219.5 123.5q2 25 12 50.5t22.5 47t25.5 38t22 22.5l749 330v-166l-602 -266q143 -84 243.5 -164t163 -154t91 -142.5t28.5 -129.5
q0 -43 -13 -94.5t-50 -94.5t-104.5 -71.5t-174.5 -28.5h-485zM109 1073q0 29 11 59.5t26.5 56t33 45t29.5 26.5l696 317v-154z" />
    <glyph glyph-name="uniFB95" unicode="&#x6af;" horiz-adv-x="1042" arabic-form="medial" 
d="M0 0q-82 0 -82 82q0 51 19.5 69.5t62.5 18.5h459q113 0 162 36t49 95q0 55 -45 124t-125 139.5t-187.5 139t-232.5 123.5q2 25 9 51.5t16.5 49t19.5 38t18 19.5l766 330v-170l-602 -266q217 -111 345 -236t171 -250q25 -72 47.5 -114.5t48 -67.5t55.5 -33t68 -8
q82 0 82 -82q0 -51 -19.5 -69.5t-62.5 -18.5t-78.5 5t-66.5 21.5t-58.5 48t-52.5 85.5h-8q-39 -96 -131 -128t-225 -32h-422zM113 1073q0 29 11 59.5t26.5 56t33 45t29.5 26.5l696 317v-154z" />
    <glyph glyph-name="uniFB9F" unicode="&#x6ba;" horiz-adv-x="1302" arabic-form="final" 
d="M1303 0q-72 0 -114 29.5t-65 70.5v-75q0 -270 -147.5 -389t-413.5 -119q-283 0 -423 126t-140 365v316h166v-281q0 -199 101.5 -278.5t299.5 -79.5q102 0 176 15t122 53t70.5 104.5t22.5 169.5v526h166v-158q0 -51 6.5 -93t26 -70.5t54 -45t92.5 -16.5q82 0 81 -82
q0 -51 -19 -69.5t-62 -18.5z" />
    <glyph glyph-name="uniFBA7" unicode="&#x6c1;" horiz-adv-x="587" arabic-form="final" 
d="M553 0q-78 0 -118 35t-67.5 78t-54 77.5t-77.5 34.5q-47 0 -76 -48t-29 -140q0 -41 6 -86h-131q-6 45 -6 92q0 74 17.5 139.5t50 113.5t77.5 75.5t99 27.5q66 0 99.5 -35.5t60 -78.5t59.5 -79t100 -36h25q82 0 82 -82q0 -51 -19.5 -69.5t-62.5 -18.5h-35z" />
    <glyph glyph-name="uniFBA8" unicode="&#x6c1;" horiz-adv-x="630" arabic-form="initial" 
d="M373 0q-37 -53 -54.5 -94t-17.5 -82q0 -35 16.5 -57.5t51.5 -22.5q12 0 26.5 3t32.5 7q-10 -72 -49 -102.5t-82 -30.5q-76 0 -110.5 46t-34.5 112q0 53 21.5 112.5t59.5 108.5h-233q-82 0 -82 82q0 51 19.5 69.5t62.5 18.5h319v618h168v-788h-114z" />
    <glyph glyph-name="uniFBA9" unicode="&#x6c1;" horiz-adv-x="944" arabic-form="medial" 
d="M0 0q-82 0 -82 82q0 51 19.5 69.5t62.5 18.5h438q-27 -84 -55.5 -173t-28.5 -155q0 -23 4 -49t15.5 -52t32 -47.5t55.5 -35.5q66 258 166 385t256 127h61q82 0 82 -82q0 -51 -19.5 -69.5t-62.5 -18.5h-67q-72 0 -120 -44t-84 -123t-64.5 -185.5t-59.5 -229.5
q-172 63 -263 149.5t-91 227.5q0 23 5 74t36 123v8h-236z" />
    <glyph glyph-name="uniFBAB" unicode="&#x6be;" horiz-adv-x="1134" arabic-form="final" 
d="M903 0v-8q51 -49 64.5 -102.5t13.5 -92.5q0 -59 -20.5 -114.5t-60.5 -96.5t-100.5 -65.5t-140.5 -24.5q-106 0 -177.5 34t-115.5 96.5t-62.5 151.5t-18.5 199v23h-66q-41 0 -62.5 -9t-31.5 -25.5t-12 -40t-2 -52.5h-80q-16 41 -23.5 82t-7.5 68q0 47 16.5 76.5t42 45
t56 20.5t59.5 5h111v119q0 254 99 390t280 136q90 0 151.5 -32.5t99 -82t54 -106.5t16.5 -107q0 -113 -44 -187.5t-101 -121.5v-8h297q82 0 82 -82q0 -51 -19.5 -69.5t-62.5 -18.5h-234zM453 170h92q78 0 132 29.5t87 73.5t47 94.5t14 91.5q0 98 -49 144t-114 46
q-100 0 -154.5 -89t-54.5 -255v-135zM453 0v-39q0 -66 7 -121t29.5 -96t62.5 -64.5t105 -23.5q86 0 128 43t42 119q0 18 -6 50t-29.5 60.5t-67.5 50t-120 21.5h-151z" />
    <glyph glyph-name="uniFBAC" unicode="&#x6be;" horiz-adv-x="1355" arabic-form="initial" 
d="M0 0q-82 0 -82 82q0 51 19.5 69.5t62.5 18.5h326q-20 29 -39 82t-19 131q0 106 49.5 199.5t151.5 130.5q-41 0 -82 -1t-84 -3v153q223 12 400.5 -20.5t299 -117.5t186 -227.5t64.5 -346.5v-150h-1253zM575 170q43 0 72 21.5t45.5 53t22.5 69.5t6 71q0 45 -8 87t-26.5 75
t-47.5 51t-70 18q-72 0 -111.5 -65.5t-39.5 -169.5q0 -37 7 -74t24.5 -66.5t45 -49t70.5 -21.5h10zM1081 170q0 219 -89 338t-242 166q35 -27 57 -63t36.5 -73.5t19.5 -75.5t5 -71q0 -78 -14 -132t-33 -89h260z" />
    <glyph glyph-name="uniFBAD" unicode="&#x6be;" horiz-adv-x="1069" arabic-form="medial" 
d="M838 0v-8q51 -49 64 -102.5t13 -92.5q0 -59 -20.5 -114.5t-60 -96.5t-100 -65.5t-140.5 -24.5q-106 0 -178 34t-116 96.5t-62.5 151.5t-18.5 199v23h-219q-82 0 -82 82q0 51 19.5 69.5t62.5 18.5h219v119q0 254 99.5 390t279.5 136q90 0 151.5 -32.5t99.5 -82
t54.5 -106.5t16.5 -107q0 -113 -44.5 -187.5t-101.5 -121.5v-8h297q82 0 82 -82q0 -51 -19.5 -69.5t-62.5 -18.5h-233zM387 170h92q78 0 132.5 29.5t87 73.5t47 94.5t14.5 91.5q0 98 -49 144t-115 46q-100 0 -154.5 -89t-54.5 -255v-135zM387 0v-39q0 -66 7 -121t29.5 -96
t62.5 -64.5t106 -23.5q86 0 128 43t42 119q0 18 -6 50t-30 60.5t-68 50t-119 21.5h-152z" />
    <glyph glyph-name="uniFBAF" unicode="&#x6d2;" horiz-adv-x="921" arabic-form="final" 
d="M489 0q-178 0 -257.5 -39t-79.5 -96q0 -41 27.5 -68.5t90 -46t165 -27t251.5 -8.5q123 0 273.5 16.5t324.5 41.5v-162q-172 -27 -323.5 -44.5t-307.5 -17.5q-219 0 -349 24t-197.5 64.5t-87 96t-19.5 121.5q0 137 128 226t384 89h410q82 0 82 -82q0 -51 -19.5 -69.5
t-62.5 -18.5h-433z" />
    <glyph glyph-name="uniFBB1" unicode="&#x6d3;" horiz-adv-x="921" arabic-form="final" 
d="M489 0q-178 0 -257.5 -39t-79.5 -96q0 -41 27.5 -68.5t90 -46t165 -27t251.5 -8.5q123 0 273.5 16.5t324.5 41.5v-162q-172 -27 -323.5 -44.5t-307.5 -17.5q-219 0 -349 24t-197.5 64.5t-87 96t-19.5 121.5q0 137 128 226t384 89h410q82 0 82 -82q0 -51 -19.5 -69.5
t-62.5 -18.5h-433zM443 364h-375v93h92q-29 47 -29 104q0 90 53.5 136t121.5 46q35 0 60.5 -4t37.5 -14v-94q-41 18 -88 18q-49 0 -71.5 -28.5t-22.5 -63.5q0 -41 26.5 -70.5t79.5 -29.5h115v-93z" />
    <glyph glyph-name="uniFBE8" unicode="&#x649;" horiz-adv-x="630" arabic-form="initial" 
d="M0 0q-82 0 -82 82q0 51 19.5 69.5t62.5 18.5h319v618h168v-788h-487z" />
    <glyph glyph-name="uniFBE9" unicode="&#x649;" horiz-adv-x="671" arabic-form="medial" 
d="M0 0q-82 0 -82 82q0 51 19.5 69.5t62.5 18.5h137q49 0 84 4t58.5 19.5t35 45t11.5 80.5v469h168v-393q0 -51 7 -93t27.5 -70.5t55 -45t88.5 -16.5q82 0 82 -82q0 -51 -19.5 -69.5t-62.5 -18.5q-80 0 -129 38t-66 95q-37 -84 -115.5 -108.5t-193.5 -24.5h-168z" />
    <glyph glyph-name="uniFBFD" unicode="&#x6cc;" horiz-adv-x="1454" arabic-form="final" 
d="M1313 0q23 -25 39 -69t16 -85q0 -61 -36 -120.5t-115.5 -105.5t-207.5 -73.5t-315 -27.5q-207 0 -341 37.5t-213 103.5t-109.5 155t-30.5 193v316h166v-285q0 -182 125 -267t407 -85q104 0 198.5 11t165.5 32.5t111.5 54.5t40.5 76q0 47 -48 84t-118.5 65.5t-150.5 50
t-141 39.5v166q264 -96 493 -96h207q82 0 82 -82q0 -51 -19.5 -69.5t-62.5 -18.5h-143z" />
    <glyph glyph-name="uniFBFE" unicode="&#x6cc;" horiz-adv-x="630" arabic-form="initial" 
d="M0 0q-82 0 -82 82q0 51 19.5 69.5t62.5 18.5h319v618h168v-788h-487zM84 -309q0 45 32 76.5t77 31.5t76.5 -31.5t31.5 -76.5t-31.5 -77t-76.5 -32t-77 32t-32 77zM350 -309q0 45 32 76.5t77 31.5t76.5 -31.5t31.5 -76.5t-31.5 -77t-76.5 -32t-77 32t-32 77z" />
    <glyph glyph-name="uniFBFF" unicode="&#x6cc;" horiz-adv-x="671" arabic-form="medial" 
d="M0 0q-82 0 -82 82q0 51 19.5 69.5t62.5 18.5h137q49 0 84 4t58.5 19.5t35 45t11.5 80.5v469h168v-393q0 -51 7 -93t27.5 -70.5t55 -45t88.5 -16.5q82 0 82 -82q0 -51 -19.5 -69.5t-62.5 -18.5q-80 0 -129 38t-66 95q-37 -84 -115.5 -108.5t-193.5 -24.5h-168zM162 -309
q0 45 32 76.5t77 31.5t76.5 -31.5t31.5 -76.5t-31.5 -77t-76.5 -32t-77 32t-32 77zM428 -309q0 45 32 76.5t77 31.5t76.5 -31.5t31.5 -76.5t-31.5 -77t-76.5 -32t-77 32t-32 77z" />
    <glyph glyph-name="uniFDF2" unicode="&#xfdf2;" horiz-adv-x="2719" arabic-form="isolated" 
d="M879 0q-104 0 -178 36t-103 134q-45 -6 -98.5 -9t-87.5 -3q-190 0 -301 80.5t-111 222.5q0 104 50 182t132 130t187.5 79t216.5 27v118h168v-669q0 -86 26.5 -122t118.5 -36h199q37 0 65.5 4t48 19.5t30.5 45t11 80.5v1143h168v-1067q0 -104 40 -164.5t126 -60.5h332
v1292h168v-1462h-500q-76 0 -121 39t-61 94q-37 -84 -118 -108.5t-208 -24.5h-200zM168 477q0 -35 14.5 -64.5t47 -52t86 -35t130.5 -12.5q20 0 63.5 3t76.5 10v401q-190 -8 -304 -70.5t-114 -179.5zM2576 1462v-1462h-168v1462h168z" />
    <glyph glyph-name="uniFDFA" unicode="&#xfdfa;" horiz-adv-x="2164" arabic-form="isolated" 
d="M2083 895q0 -29 -33 -80q-31 -49 -63 -63q-96 -43 -238 -43q-23 0 -47.5 1t-50.5 3q-49 -96 -78 -97q-8 0 -8 13q0 33 45 96q-88 35 -99 53q-82 -53 -102 -53q16 -289 51 -360q37 -72 172 -82l4 4q-43 33 -43 88q0 68 66 155q49 66 125 66q57 0 108 -35q49 -35 50 -63
q-53 18 -107 18q-72 0 -133 -29q-53 -29 -53 -55q0 -29 51 -80q49 -51 90 -59q39 4 139 37q51 16 86 28.5t51 22.5l-34 -76q-207 -109 -392 -108q-199 0 -243 149q-61 -133 -117 -133q-53 0 -137 90q-133 -115 -404 -115q-41 0 -76.5 3.5t-66.5 7.5q8 -66 18 -107
q18 -74 48 -102q90 -90 360 -90q231 0 338 65q31 76 57 76q8 0 8 -16q0 -29 -24 -91q12 -27 55 -26q53 0 100 24q43 135 68 136q8 0 8 -23q0 -39 -20 -88q61 -27 90 -27q12 0 16 7q2 4 -16 79l35 74q25 -74 24 -106q0 -137 -90 -138q-47 0 -98 39q-31 -53 -121 -53
q-98 0 -98 53q-41 -29 -131 -49q-109 -23 -248 -22q-199 0 -293 57q-121 70 -123 258l-45 -66q-33 -49 -53 -53q25 -43 24 -84q0 -53 -32 -86q-16 -16 -43 -16q-41 0 -125 47q-27 -61 -86 -96q-6 -4 -19.5 -6t-28 -3.5t-26.5 -2.5t-19 -3l-22 -8q-12 0 -12 10q0 8 49 31
q63 25 80 39l69 53q-20 35 -20 82q0 43 37 84q37 43 69 43q4 0 13 -4q35 -20 59 -20q37 0 74 47l47 86q-80 25 -113 55q-61 55 -80 174h-4q-59 -102 -162 -102q-37 0 -79 16q-33 14 -33 25q0 51 88 118q41 33 85 54.5t89 36.5l-4 34l41 68q14 -221 43 -289q27 -63 115 -92
l-27 270l39 88l35 -368q106 -12 194 -12q213 0 363 81q29 78 39 78q8 0 8 -18q0 -20 -8 -51q76 -72 120 -72q53 0 86 88l-26 330q-152 -6 -180 151h-4q-14 -57 -29 -86q-23 -53 -55 -61l4 -4q143 8 143 -80q0 -61 -51 -94q-176 -121 -328 -121q-94 0 -151.5 48t-57.5 134
q0 66 33 137q-55 14 -78 88h-4q-31 -104 -113 -104q-100 0 -96 158l-55 -50q-14 -14 -80 -14q-100 0 -100 37q0 23 26 64q27 45 51 55l156 76v20l35 74l8 -246q2 -86 66 -86q31 0 60.5 21.5t33.5 46.5l-33 233l37 80l57 -330q18 -43 68 -43q47 0 47 27q0 45 -33 151l-20 66
t-21 67l27 68q82 -254 82 -321q0 -43 -21 -91q-20 -57 -51 -57q-10 0 -18 6q-14 -41 -15 -80q0 -154 187 -153q145 0 291 98q4 4 4 6q0 12 -78 25q-121 18 -125 20q-25 18 27 82q123 51 131 109q2 6 2 28q0 100 -10.5 218t-30.5 255l34 115q49 -432 78 -524
q37 -117 148 -135l-10 196l43 92l16 -286q57 20 123 73l61 -43q39 -25 80 -30q47 49 133 112q106 78 144 78q37 0 84 -28q53 -31 53 -68zM2064 4q0 -102 -79 -221q-86 -131 -183 -131q-47 0 -121 33q-76 33 -75 47q0 8 10 8q12 0 55 -14q49 -16 72 -17q139 -4 287 217
l-15 45q-37 -53 -76 -53q-29 0 -50 26.5t-23 57.5q-4 45 30 111q33 63 58 63t65 -49q45 -53 45 -123zM1987 1309q-74 -27 -238 -105q-197 -96 -197 -125q0 -23 54 -51l-19 -49q-68 20 -67 82q0 61 53 90q262 152 432 209zM975 915q-6 -135 -27 -149l-51 496l45 116zM1233 76
l-53 -64l-99 72l-57 -74l-102 74l59 72l96 -72l56 68zM2025 860q0 14 -36 33q-35 18 -54 18q-43 0 -123 -49q-61 -39 -96 -69q8 -2 41 -2q80 0 168 16q100 20 100 53zM1294 -248q0 -41 -4 -61q-12 -27 -51 -27q-20 0 -29 8q-31 -33 -61 -32q-16 0 -33.5 17t-25.5 17
q-16 0 -76 -34q-59 -37 -144 -37q-90 0 -90 16q0 14 66 14q35 0 59.5 1t34.5 4q31 6 72 32q59 39 82 39q16 0 38.5 -16.5t26.5 -16.5q31 0 37 35q2 27 23 27q8 0 8 -12t-2 -19q2 -8 22 -12q25 0 25 24q-1 33 22 33zM1669 1444l-12 -45l-400 -197l9 51zM346 539
q-180 -70 -180 -107q0 -20 63 -20q68 0 121 49zM664 1362q0 -66 -43 -66q-27 0 -43 17q-37 -31 -62 -31q-43 0 -43 55q0 39 6 56l13 12q-2 -76 34 -76q25 0 39 33l-4 47l19 29l8 -62q2 -33 30 -33q25 0 23 31l-6 45l14 21q15 -37 15 -78zM387 997q-20 -10 -40.5 -18
t-43.5 -16q-66 -31 -70 -50q-4 -23 52 -22q59 0 104 27zM438 -78q-10 43 -49 70q-39 29 -70 28q-29 0 -28 -24q0 -27 53 -55q49 -31 80 -31q16 0 14 12zM2005 20q-12 66 -53 66q-33 0 -41 -51q8 -37 63 -37q27 -1 31 22z" />
    <glyph glyph-name="uniFE82" unicode="&#x622;" horiz-adv-x="489" arabic-form="final" 
d="M571 88q0 -51 -19.5 -69.5t-62.5 -18.5h-53q-66 0 -120 13.5t-92 46t-59.5 87t-21.5 136.5v1179h168v-1134q0 -86 27 -122t119 -36h32q82 0 82 -82zM-131 1739q47 47 89 61.5t83 14.5q39 0 93.5 -18.5t101.5 -41.5q49 -23 94 -38t80 -15q53 0 79.5 28.5t37.5 59.5l65 -29
q-29 -80 -67.5 -121t-114.5 -41q-55 0 -105.5 17.5t-97.5 40.5t-94 39t-88 16q-35 0 -58.5 -8t-54.5 -31z" />
    <glyph glyph-name="uniFE84" unicode="&#x623;" horiz-adv-x="489" arabic-form="final" 
d="M571 88q0 -51 -19.5 -69.5t-62.5 -18.5h-53q-66 0 -120 13.5t-92 46t-59.5 87t-21.5 136.5v1179h168v-1134q0 -86 27 -122t119 -36h32q82 0 82 -82zM412 1615h-375v93h92q-29 47 -29 104q0 90 53.5 136t121.5 46q35 0 60.5 -4t37.5 -14v-94q-41 18 -88 18
q-49 0 -71.5 -28.5t-22.5 -63.5q0 -41 26.5 -70.5t79.5 -29.5h115v-93z" />
    <glyph glyph-name="uniFE86" unicode="&#x624;" horiz-adv-x="1013" arabic-form="final" 
d="M866 0q-8 -125 -52 -207t-120 -131t-181 -69.5t-234 -20.5h-86v170h63q94 0 175 9t139.5 37t92 78t35.5 134h-231q-84 0 -154.5 18.5t-123 60.5t-82 109.5t-29.5 167.5q0 84 27.5 164t80 141.5t127 99.5t170.5 38q106 0 180 -38t120 -107.5t66.5 -168t20.5 -219.5v-96
h144q82 0 82 -82q0 -51 -19.5 -69.5t-62.5 -18.5h-148zM242 373q0 -104 60 -153.5t177 -49.5h219v135q0 154 -51 243t-176 89q-59 0 -102 -23.5t-71 -61.5t-42 -85t-14 -94zM696 1026h-446v109h104q-47 59 -47 139q0 57 18.5 99t49 69.5t69.5 42t82 14.5t75 -6t44 -10v-111
q-47 18 -106 19q-66 0 -95.5 -38t-29.5 -83q0 -57 34.5 -96t106.5 -39h141v-109z" />
    <glyph glyph-name="uniFE88" unicode="&#x625;" horiz-adv-x="489" arabic-form="final" 
d="M571 88q0 -51 -19.5 -69.5t-62.5 -18.5h-53q-66 0 -120 13.5t-92 46t-59.5 87t-21.5 136.5v1179h168v-1134q0 -86 27 -122t119 -36h32q82 0 82 -82zM412 -510h-375v94h92q-29 47 -29 103q0 92 53.5 138t121.5 46q35 0 60.5 -4t37.5 -14v-97q-41 18 -88 19
q-49 0 -71.5 -29t-22.5 -63q0 -41 26.5 -70t79.5 -29h115v-94z" />
    <glyph glyph-name="uniFE8A" unicode="&#x626;" horiz-adv-x="1454" arabic-form="final" 
d="M1313 0q23 -25 39 -69t16 -85q0 -61 -36 -120.5t-115.5 -105.5t-207.5 -73.5t-315 -27.5q-207 0 -341 37.5t-213 103.5t-109.5 155t-30.5 193v316h166v-285q0 -182 125 -267t407 -85q104 0 198.5 11t165.5 32.5t111.5 54.5t40.5 76q0 47 -48 84t-118.5 65.5t-150.5 50
t-141 39.5v166q264 -96 493 -96h207q82 0 82 -82q0 -51 -19.5 -69.5t-62.5 -18.5h-143zM501 555h-446v109h104q-47 59 -47 139q0 57 18.5 99t49 69.5t69.5 42t82 14.5t75 -6t44 -10v-111q-47 18 -106 19q-66 0 -95.5 -38t-29.5 -83q0 -57 34.5 -96t106.5 -39h141v-109z" />
    <glyph glyph-name="uniFE8B" unicode="&#x626;" horiz-adv-x="630" arabic-form="initial" 
d="M0 0q-82 0 -82 82q0 51 19.5 69.5t62.5 18.5h319v618h168v-788h-487zM596 1026h-446v109h104q-47 59 -47 139q0 57 18.5 99t49 69.5t69.5 42t82 14.5t75 -6t44 -10v-111q-47 18 -106 19q-66 0 -95.5 -38t-29.5 -83q0 -57 34.5 -96t106.5 -39h141v-109z" />
    <glyph glyph-name="uniFE8C" unicode="&#x626;" horiz-adv-x="671" arabic-form="medial" 
d="M0 0q-82 0 -82 82q0 51 19.5 69.5t62.5 18.5h137q49 0 84 4t58.5 19.5t35 45t11.5 80.5v469h168v-393q0 -51 7 -93t27.5 -70.5t55 -45t88.5 -16.5q82 0 82 -82q0 -51 -19.5 -69.5t-62.5 -18.5q-80 0 -129 38t-66 95q-37 -84 -115.5 -108.5t-193.5 -24.5h-168zM628 1026
h-446v109h104q-47 59 -47 139q0 57 18.5 99t49 69.5t69.5 42t82 14.5t75 -6t44 -10v-111q-47 18 -106 19q-66 0 -95.5 -38t-29.5 -83q0 -57 34.5 -96t106.5 -39h141v-109z" />
    <glyph glyph-name="uniFE8E" unicode="&#x627;" horiz-adv-x="489" arabic-form="final" 
d="M571 88q0 -51 -19.5 -69.5t-62.5 -18.5h-53q-66 0 -120 13.5t-92 46t-59.5 87t-21.5 136.5v1179h168v-1134q0 -86 27 -122t119 -36h32q82 0 82 -82z" />
    <glyph glyph-name="uniFE90" unicode="&#x628;" horiz-adv-x="1832" arabic-form="final" 
d="M1833 0q-80 0 -129 38t-66 95q-18 -43 -48.5 -68.5t-77 -40t-112 -19.5t-153.5 -5h-833q-119 0 -198 16.5t-127 52t-68.5 92t-20.5 138.5v317h168v-256q0 -63 15.5 -101t52 -57.5t100 -25.5t162.5 -6h747q68 0 115 4t74.5 19.5t40 45t12.5 80.5v469h168v-393q0 -51 7 -93
t27.5 -70.5t55.5 -45t88 -16.5q82 0 82 -82q0 -51 -19.5 -69.5t-62.5 -18.5zM729 -311q0 45 32 76.5t77 31.5t76.5 -31.5t31.5 -76.5t-31.5 -77t-76.5 -32t-77 32t-32 77z" />
    <glyph glyph-name="uniFE91" unicode="&#x628;" horiz-adv-x="630" arabic-form="initial" 
d="M0 0q-82 0 -82 82q0 51 19.5 69.5t62.5 18.5h319v618h168v-788h-487zM260 -305q0 45 32 76.5t77 31.5t76.5 -31.5t31.5 -76.5t-31.5 -77t-76.5 -32t-77 32t-32 77z" />
    <glyph glyph-name="uniFE92" unicode="&#x628;" horiz-adv-x="671" arabic-form="medial" 
d="M0 0q-82 0 -82 82q0 51 19.5 69.5t62.5 18.5h137q49 0 84 4t58.5 19.5t35 45t11.5 80.5v469h168v-393q0 -51 7 -93t27.5 -70.5t55 -45t88.5 -16.5q82 0 82 -82q0 -51 -19.5 -69.5t-62.5 -18.5q-80 0 -129 38t-66 95q-37 -84 -115.5 -108.5t-193.5 -24.5h-168zM264 -305
q0 45 32 76.5t77 31.5t76.5 -31.5t31.5 -76.5t-31.5 -77t-76.5 -32t-77 32t-32 77z" />
    <glyph glyph-name="uniFE94" unicode="&#x629;" horiz-adv-x="950" arabic-form="final" 
d="M170 535q0 -86 54.5 -139.5t172.5 -53.5q45 0 97.5 10t93.5 27v364h-180q-98 0 -168 -49.5t-70 -158.5zM383 168q-49 0 -113.5 14.5t-123 52t-99.5 106.5t-41 179q0 111 39 185.5t100.5 121.5t136 67.5t148.5 20.5h326v-587q0 -86 26.5 -122t118.5 -36h49q82 0 82 -82
q0 -51 -19.5 -69.5t-62.5 -18.5h-69q-53 0 -101.5 9t-86.5 33t-64.5 62.5t-34.5 100.5q-45 -16 -101.5 -26.5t-109.5 -10.5zM215 1289q0 45 32 76.5t77 31.5t76.5 -31.5t31.5 -76.5t-31.5 -77t-76.5 -32t-77 32t-32 77zM481 1289q0 45 32 76.5t77 31.5t76.5 -31.5
t31.5 -76.5t-31.5 -77t-76.5 -32t-77 32t-32 77z" />
    <glyph glyph-name="uniFE96" unicode="&#x62a;" horiz-adv-x="1832" arabic-form="final" 
d="M1833 0q-80 0 -129 38t-66 95q-18 -43 -48.5 -68.5t-77 -40t-112 -19.5t-153.5 -5h-833q-119 0 -198 16.5t-127 52t-68.5 92t-20.5 138.5v317h168v-256q0 -63 15.5 -101t52 -57.5t100 -25.5t162.5 -6h747q68 0 115 4t74.5 19.5t40 45t12.5 80.5v469h168v-393q0 -51 7 -93
t27.5 -70.5t55.5 -45t88 -16.5q82 0 82 -82q0 -51 -19.5 -69.5t-62.5 -18.5zM592 1014q0 45 32 76.5t77 31.5t76.5 -31.5t31.5 -76.5t-31.5 -77t-76.5 -32t-77 32t-32 77zM858 1014q0 45 32 76.5t77 31.5t76.5 -31.5t31.5 -76.5t-31.5 -77t-76.5 -32t-77 32t-32 77z" />
    <glyph glyph-name="uniFE97" unicode="&#x62a;" horiz-adv-x="630" arabic-form="initial" 
d="M0 0q-82 0 -82 82q0 51 19.5 69.5t62.5 18.5h319v618h168v-788h-487zM137 1133q0 45 32 76.5t77 31.5t76.5 -31.5t31.5 -76.5t-31.5 -77t-76.5 -32t-77 32t-32 77zM403 1133q0 45 32 76.5t77 31.5t76.5 -31.5t31.5 -76.5t-31.5 -77t-76.5 -32t-77 32t-32 77z" />
    <glyph glyph-name="uniFE98" unicode="&#x62a;" horiz-adv-x="671" arabic-form="medial" 
d="M0 0q-82 0 -82 82q0 51 19.5 69.5t62.5 18.5h137q49 0 84 4t58.5 19.5t35 45t11.5 80.5v469h168v-393q0 -51 7 -93t27.5 -70.5t55 -45t88.5 -16.5q82 0 82 -82q0 -51 -19.5 -69.5t-62.5 -18.5q-80 0 -129 38t-66 95q-37 -84 -115.5 -108.5t-193.5 -24.5h-168zM162 1133
q0 45 32 76.5t77 31.5t76.5 -31.5t31.5 -76.5t-31.5 -77t-76.5 -32t-77 32t-32 77zM428 1133q0 45 32 76.5t77 31.5t76.5 -31.5t31.5 -76.5t-31.5 -77t-76.5 -32t-77 32t-32 77z" />
    <glyph glyph-name="uniFE9A" unicode="&#x62b;" horiz-adv-x="1832" arabic-form="final" 
d="M1833 0q-80 0 -129 38t-66 95q-18 -43 -48.5 -68.5t-77 -40t-112 -19.5t-153.5 -5h-833q-119 0 -198 16.5t-127 52t-68.5 92t-20.5 138.5v317h168v-256q0 -63 15.5 -101t52 -57.5t100 -25.5t162.5 -6h747q68 0 115 4t74.5 19.5t40 45t12.5 80.5v469h168v-393q0 -51 7 -93
t27.5 -70.5t55.5 -45t88 -16.5q82 0 82 -82q0 -51 -19.5 -69.5t-62.5 -18.5zM594 1014q0 45 32 76.5t77 31.5t76.5 -31.5t31.5 -76.5t-31.5 -77t-76.5 -32t-77 32t-32 77zM860 1014q0 45 32 76.5t77 31.5t76.5 -31.5t31.5 -76.5t-31.5 -77t-76.5 -32t-77 32t-32 77z
M731 1259q0 45 32 77t77 32t76.5 -32t31.5 -77t-31.5 -76.5t-76.5 -31.5t-77 31.5t-32 76.5z" />
    <glyph glyph-name="uniFE9B" unicode="&#x62b;" horiz-adv-x="630" arabic-form="initial" 
d="M0 0q-82 0 -82 82q0 51 19.5 69.5t62.5 18.5h319v618h168v-788h-487zM139 1133q0 45 32 76.5t77 31.5t76.5 -31.5t31.5 -76.5t-31.5 -77t-76.5 -32t-77 32t-32 77zM405 1133q0 45 32 76.5t77 31.5t76.5 -31.5t31.5 -76.5t-31.5 -77t-76.5 -32t-77 32t-32 77zM276 1378
q0 45 32 77t77 32t76.5 -32t31.5 -77t-31.5 -76.5t-76.5 -31.5t-77 31.5t-32 76.5z" />
    <glyph glyph-name="uniFE9C" unicode="&#x62b;" horiz-adv-x="671" arabic-form="medial" 
d="M0 0q-82 0 -82 82q0 51 19.5 69.5t62.5 18.5h137q49 0 84 4t58.5 19.5t35 45t11.5 80.5v469h168v-393q0 -51 7 -93t27.5 -70.5t55 -45t88.5 -16.5q82 0 82 -82q0 -51 -19.5 -69.5t-62.5 -18.5q-80 0 -129 38t-66 95q-37 -84 -115.5 -108.5t-193.5 -24.5h-168zM166 1133
q0 45 32 76.5t77 31.5t76.5 -31.5t31.5 -76.5t-31.5 -77t-76.5 -32t-77 32t-32 77zM432 1133q0 45 32 76.5t77 31.5t76.5 -31.5t31.5 -76.5t-31.5 -77t-76.5 -32t-77 32t-32 77zM303 1378q0 45 32 77t77 32t76.5 -32t31.5 -77t-31.5 -76.5t-76.5 -31.5t-77 31.5t-32 76.5z
" />
    <glyph glyph-name="uniFE9E" unicode="&#x62c;" horiz-adv-x="1304" arabic-form="final" 
d="M561 0q-66 0 -133.5 -13.5t-123.5 -47t-92 -94t-36 -154.5q0 -88 32 -151.5t87 -104.5t128 -60.5t157 -19.5h419v-174h-413q-131 0 -238.5 30.5t-184.5 92t-120 153.5t-43 215q0 147 51 243.5t132 153t181.5 79t198.5 22.5h436q0 131 -34.5 221t-94 146.5t-139.5 82
t-168 25.5q-59 0 -125.5 -11t-109.5 -24v164q41 12 108.5 27.5t147.5 15.5q154 0 264 -51t183 -140t108 -207t37 -249h129q82 0 81 -82q0 -51 -19 -69.5t-62 -18.5h-744zM526 -311q0 45 32 76.5t77 31.5t76.5 -31.5t31.5 -76.5t-31.5 -77t-76.5 -32t-77 32t-32 77z" />
    <glyph glyph-name="uniFE9F" unicode="&#x62c;" horiz-adv-x="1099" arabic-form="initial" 
d="M821 170q0 131 -34.5 221t-94 146.5t-139.5 82t-168 25.5q-59 0 -125.5 -11t-109.5 -24v164q41 12 108.5 27.5t147.5 15.5q156 0 268 -53t184 -144.5t105.5 -213t33.5 -256.5v-150h-997q-82 0 -82 82q0 51 19.5 69.5t62.5 18.5h821zM428 -307q0 45 32 76.5t77 31.5
t76.5 -31.5t31.5 -76.5t-31.5 -77t-76.5 -32t-77 32t-32 77z" />
    <glyph glyph-name="uniFEA0" unicode="&#x62c;" horiz-adv-x="1126" arabic-form="medial" 
d="M0 0q-82 0 -82 82q0 51 19.5 69.5t62.5 18.5h821q0 131 -34.5 221t-94 146.5t-139.5 82t-168 25.5q-59 0 -125.5 -11t-109.5 -24v164q41 12 108.5 27.5t147.5 15.5q154 0 264 -51t183 -140t107.5 -207t36.5 -249h127q82 0 82 -82q0 -51 -19.5 -69.5t-62.5 -18.5h-1124z
M428 -307q0 45 32 76.5t77 31.5t76.5 -31.5t31.5 -76.5t-31.5 -77t-76.5 -32t-77 32t-32 77z" />
    <glyph glyph-name="uniFEA2" unicode="&#x62d;" horiz-adv-x="1304" arabic-form="final" 
d="M561 0q-66 0 -133.5 -13.5t-123.5 -47t-92 -94t-36 -154.5q0 -88 32 -151.5t87 -104.5t128 -60.5t157 -19.5h419v-174h-413q-131 0 -238.5 30.5t-184.5 92t-120 153.5t-43 215q0 147 51 243.5t132 153t181.5 79t198.5 22.5h436q0 131 -34.5 221t-94 146.5t-139.5 82
t-168 25.5q-59 0 -125.5 -11t-109.5 -24v164q41 12 108.5 27.5t147.5 15.5q154 0 264 -51t183 -140t108 -207t37 -249h129q82 0 81 -82q0 -51 -19 -69.5t-62 -18.5h-744z" />
    <glyph glyph-name="uniFEA3" unicode="&#x62d;" horiz-adv-x="1099" arabic-form="initial" 
d="M821 170q0 131 -34.5 221t-94 146.5t-139.5 82t-168 25.5q-59 0 -125.5 -11t-109.5 -24v164q41 12 108.5 27.5t147.5 15.5q156 0 268 -53t184 -144.5t105.5 -213t33.5 -256.5v-150h-997q-82 0 -82 82q0 51 19.5 69.5t62.5 18.5h821z" />
    <glyph glyph-name="uniFEA4" unicode="&#x62d;" horiz-adv-x="1126" arabic-form="medial" 
d="M0 0q-82 0 -82 82q0 51 19.5 69.5t62.5 18.5h821q0 131 -34.5 221t-94 146.5t-139.5 82t-168 25.5q-59 0 -125.5 -11t-109.5 -24v164q41 12 108.5 27.5t147.5 15.5q154 0 264 -51t183 -140t107.5 -207t36.5 -249h127q82 0 82 -82q0 -51 -19.5 -69.5t-62.5 -18.5h-1124z
" />
    <glyph glyph-name="uniFEA6" unicode="&#x62e;" horiz-adv-x="1304" arabic-form="final" 
d="M561 0q-66 0 -133.5 -13.5t-123.5 -47t-92 -94t-36 -154.5q0 -88 32 -151.5t87 -104.5t128 -60.5t157 -19.5h419v-174h-413q-131 0 -238.5 30.5t-184.5 92t-120 153.5t-43 215q0 147 51 243.5t132 153t181.5 79t198.5 22.5h436q0 131 -34.5 221t-94 146.5t-139.5 82
t-168 25.5q-59 0 -125.5 -11t-109.5 -24v164q41 12 108.5 27.5t147.5 15.5q154 0 264 -51t183 -140t108 -207t37 -249h129q82 0 81 -82q0 -51 -19 -69.5t-62 -18.5h-744zM491 1133q0 45 32 76.5t77 31.5t76.5 -31.5t31.5 -76.5t-31.5 -77t-76.5 -32t-77 32t-32 77z" />
    <glyph glyph-name="uniFEA7" unicode="&#x62e;" horiz-adv-x="1099" arabic-form="initial" 
d="M821 170q0 131 -34.5 221t-94 146.5t-139.5 82t-168 25.5q-59 0 -125.5 -11t-109.5 -24v164q41 12 108.5 27.5t147.5 15.5q156 0 268 -53t184 -144.5t105.5 -213t33.5 -256.5v-150h-997q-82 0 -82 82q0 51 19.5 69.5t62.5 18.5h821zM313 1133q0 45 32 76.5t77 31.5
t76.5 -31.5t31.5 -76.5t-31.5 -77t-76.5 -32t-77 32t-32 77z" />
    <glyph glyph-name="uniFEA8" unicode="&#x62e;" horiz-adv-x="1126" arabic-form="medial" 
d="M0 0q-82 0 -82 82q0 51 19.5 69.5t62.5 18.5h821q0 131 -34.5 221t-94 146.5t-139.5 82t-168 25.5q-59 0 -125.5 -11t-109.5 -24v164q41 12 108.5 27.5t147.5 15.5q154 0 264 -51t183 -140t107.5 -207t36.5 -249h127q82 0 82 -82q0 -51 -19.5 -69.5t-62.5 -18.5h-1124z
M313 1133q0 45 32 76.5t77 31.5t76.5 -31.5t31.5 -76.5t-31.5 -77t-76.5 -32t-77 32t-32 77z" />
    <glyph glyph-name="uniFEAA" unicode="&#x62f;" horiz-adv-x="958" arabic-form="final" 
d="M958 0q-84 0 -141 35t-115 125q-23 -55 -58.5 -88t-79.5 -48.5t-93 -19.5t-98 -4h-312v170h367q86 0 132 21.5t46 62.5q0 39 -20.5 78t-50.5 84l-218 321l158 99l246 -408q41 -68 71.5 -117t58.5 -79.5t53.5 -46t53.5 -15.5q82 0 82 -82q0 -51 -19.5 -69.5t-62.5 -18.5z
" />
    <glyph glyph-name="uniFEAC" unicode="&#x630;" horiz-adv-x="958" arabic-form="final" 
d="M958 0q-84 0 -141 35t-115 125q-23 -55 -58.5 -88t-79.5 -48.5t-93 -19.5t-98 -4h-312v170h367q86 0 132 21.5t46 62.5q0 39 -20.5 78t-50.5 84l-218 321l158 99l246 -408q41 -68 71.5 -117t58.5 -79.5t53.5 -46t53.5 -15.5q82 0 82 -82q0 -51 -19.5 -69.5t-62.5 -18.5z
M295 1133q0 45 32 76.5t77 31.5t76.5 -31.5t31.5 -76.5t-31.5 -77t-76.5 -32t-77 32t-32 77z" />
    <glyph glyph-name="uniFEAE" unicode="&#x631;" horiz-adv-x="636" arabic-form="final" 
d="M637 0q-68 0 -113 30.5t-67 71.5q0 -147 -17.5 -248.5t-66.5 -164t-135 -90t-224 -27.5v170q100 0 156.5 21.5t84.5 69.5t33 123t5 181v549h166v-291q0 -104 38 -164.5t140 -60.5q82 0 82 -82q0 -51 -19.5 -69.5t-62.5 -18.5z" />
    <glyph glyph-name="uniFEB0" unicode="&#x632;" horiz-adv-x="636" arabic-form="final" 
d="M637 0q-68 0 -113 30.5t-67 71.5q0 -147 -17.5 -248.5t-66.5 -164t-135 -90t-224 -27.5v170q100 0 156.5 21.5t84.5 69.5t33 123t5 181v549h166v-291q0 -104 38 -164.5t140 -60.5q82 0 82 -82q0 -51 -19.5 -69.5t-62.5 -18.5zM264 1133q0 45 32 76.5t77 31.5t76.5 -31.5
t31.5 -76.5t-31.5 -77t-76.5 -32t-77 32t-32 77z" />
    <glyph glyph-name="uniFEB2" unicode="&#x633;" horiz-adv-x="2379" arabic-form="final" 
d="M2378 0q-80 0 -128 38t-65 95q-18 -43 -51 -68.5t-69.5 -40t-71.5 -19.5t-60 -5q-68 0 -113.5 12.5t-76.5 31.5t-48.5 43t-27.5 46q-37 -84 -111.5 -108.5t-169.5 -24.5q-125 0 -182 29.5t-80 70.5v-75q0 -268 -147.5 -387t-413.5 -119q-283 0 -423 125t-140 364v316h166
v-281q0 -98 25.5 -167t75.5 -110.5t126 -60t174 -18.5q102 0 176 14t122 53t70.5 104.5t22.5 168.5v659h166v-291q0 -51 7.5 -93t30 -70.5t67.5 -45t121 -16.5q39 0 70.5 4t52 19.5t32 45t11.5 80.5v367h167v-291q0 -51 8.5 -93t30 -70.5t60.5 -45t100 -16.5q33 0 61.5 4
t48 19.5t31 45t11.5 80.5v469h168v-393q0 -51 7 -93t26.5 -70.5t54 -45t88.5 -16.5q82 0 82 -82q0 -51 -19.5 -69.5t-62.5 -18.5z" />
    <glyph glyph-name="uniFEB3" unicode="&#x633;" horiz-adv-x="1699" arabic-form="initial" 
d="M72 170q68 0 114.5 4t74.5 19.5t40 45t12 80.5v369h168v-293q0 -51 6.5 -93t29 -70.5t63.5 -45t112 -16.5q45 0 79 4t56.5 19.5t33.5 45t11 80.5v367h168v-291q0 -51 7.5 -93t27 -70.5t54 -45t88.5 -16.5h172v618h167v-788h-339q-80 0 -128.5 38t-64.5 95
q-37 -84 -115 -108.5t-188 -24.5q-72 0 -118 11.5t-76.5 30.5t-48 44t-29.5 49q-18 -43 -46 -68.5t-72 -41t-108.5 -20.5t-154.5 -5h-68q-82 0 -82 82q0 51 19.5 69.5t62.5 18.5h72z" />
    <glyph glyph-name="uniFEB4" unicode="&#x633;" horiz-adv-x="1738" arabic-form="medial" 
d="M72 170q68 0 114.5 4t74.5 19.5t40 45t12 80.5v367h168v-291q0 -51 6.5 -93t29 -70.5t64.5 -45t113 -16.5q45 0 78 4t55.5 19.5t33.5 45t11 80.5v367h168v-291q0 -51 7.5 -93t29 -70.5t59.5 -45t99 -16.5q35 0 63.5 4t49 19.5t32 45t11.5 80.5v469h168v-393q0 -51 7 -93
t27.5 -70.5t55 -45t88.5 -16.5q82 0 82 -82q0 -51 -19.5 -69.5t-62.5 -18.5q-80 0 -129 38t-66 95q-18 -43 -51 -68.5t-70 -40t-71.5 -19.5t-59.5 -5q-68 0 -114 12.5t-76.5 31.5t-48 43t-27.5 46q-37 -84 -113.5 -108.5t-183.5 -24.5q-72 0 -120 11.5t-78.5 30.5t-49 44
t-30.5 49q-18 -43 -46 -68.5t-72 -41t-108.5 -20.5t-154.5 -5h-68q-82 0 -82 82q0 51 19.5 69.5t62.5 18.5h72z" />
    <glyph glyph-name="uniFEB6" unicode="&#x634;" horiz-adv-x="2379" arabic-form="final" 
d="M2378 0q-80 0 -128 38t-65 95q-18 -43 -51 -68.5t-69.5 -40t-71.5 -19.5t-60 -5q-68 0 -113.5 12.5t-76.5 31.5t-48.5 43t-27.5 46q-37 -84 -111.5 -108.5t-169.5 -24.5q-125 0 -182 29.5t-80 70.5v-75q0 -268 -147.5 -387t-413.5 -119q-283 0 -423 125t-140 364v316h166
v-281q0 -98 25.5 -167t75.5 -110.5t126 -60t174 -18.5q102 0 176 14t122 53t70.5 104.5t22.5 168.5v659h166v-291q0 -51 7.5 -93t30 -70.5t67.5 -45t121 -16.5q39 0 70.5 4t52 19.5t32 45t11.5 80.5v367h167v-291q0 -51 8.5 -93t30 -70.5t60.5 -45t100 -16.5q33 0 61.5 4
t48 19.5t31 45t11.5 80.5v469h168v-393q0 -51 7 -93t26.5 -70.5t54 -45t88.5 -16.5q82 0 82 -82q0 -51 -19.5 -69.5t-62.5 -18.5zM1352 1133q0 45 32 76.5t77 31.5t76.5 -31.5t31.5 -76.5t-31.5 -77t-76.5 -32t-77 32t-32 77zM1618 1133q0 45 32 76.5t77 31.5t76.5 -31.5
t31.5 -76.5t-31.5 -77t-76.5 -32t-77 32t-32 77zM1489 1378q0 45 32 77t77 32t76.5 -32t31.5 -77t-31.5 -76.5t-76.5 -31.5t-77 31.5t-32 76.5z" />
    <glyph glyph-name="uniFEB7" unicode="&#x634;" horiz-adv-x="1699" arabic-form="initial" 
d="M72 170q68 0 114.5 4t74.5 19.5t40 45t12 80.5v369h168v-293q0 -51 6.5 -93t29 -70.5t63.5 -45t112 -16.5q45 0 79 4t56.5 19.5t33.5 45t11 80.5v367h168v-291q0 -51 7.5 -93t27 -70.5t54 -45t88.5 -16.5h172v618h167v-788h-339q-80 0 -128.5 38t-64.5 95
q-37 -84 -115 -108.5t-188 -24.5q-72 0 -118 11.5t-76.5 30.5t-48 44t-29.5 49q-18 -43 -46 -68.5t-72 -41t-108.5 -20.5t-154.5 -5h-68q-82 0 -82 82q0 51 19.5 69.5t62.5 18.5h72zM700 1133q0 45 32 76.5t77 31.5t76.5 -31.5t31.5 -76.5t-31.5 -77t-76.5 -32t-77 32
t-32 77zM966 1133q0 45 32 76.5t77 31.5t76.5 -31.5t31.5 -76.5t-31.5 -77t-76.5 -32t-77 32t-32 77zM837 1378q0 45 32 77t77 32t76.5 -32t31.5 -77t-31.5 -76.5t-76.5 -31.5t-77 31.5t-32 76.5z" />
    <glyph glyph-name="uniFEB8" unicode="&#x634;" horiz-adv-x="1738" arabic-form="medial" 
d="M72 170q68 0 114.5 4t74.5 19.5t40 45t12 80.5v367h168v-291q0 -51 6.5 -93t29 -70.5t64.5 -45t113 -16.5q45 0 78 4t55.5 19.5t33.5 45t11 80.5v367h168v-291q0 -51 7.5 -93t29 -70.5t59.5 -45t99 -16.5q35 0 63.5 4t49 19.5t32 45t11.5 80.5v469h168v-393q0 -51 7 -93
t27.5 -70.5t55 -45t88.5 -16.5q82 0 82 -82q0 -51 -19.5 -69.5t-62.5 -18.5q-80 0 -129 38t-66 95q-18 -43 -51 -68.5t-70 -40t-71.5 -19.5t-59.5 -5q-68 0 -114 12.5t-76.5 31.5t-48 43t-27.5 46q-37 -84 -113.5 -108.5t-183.5 -24.5q-72 0 -120 11.5t-78.5 30.5t-49 44
t-30.5 49q-18 -43 -46 -68.5t-72 -41t-108.5 -20.5t-154.5 -5h-68q-82 0 -82 82q0 51 19.5 69.5t62.5 18.5h72zM709 1133q0 45 32 76.5t77 31.5t76.5 -31.5t31.5 -76.5t-31.5 -77t-76.5 -32t-77 32t-32 77zM975 1133q0 45 32 76.5t77 31.5t76.5 -31.5t31.5 -76.5t-31.5 -77
t-76.5 -32t-77 32t-32 77zM846 1378q0 45 32 77t77 32t76.5 -32t31.5 -77t-31.5 -76.5t-76.5 -31.5t-77 31.5t-32 76.5z" />
    <glyph glyph-name="uniFEBA" unicode="&#x635;" horiz-adv-x="2691" arabic-form="final" 
d="M1391 0q-127 0 -185.5 29.5t-81.5 70.5v-75q0 -268 -147.5 -387t-413.5 -119q-283 0 -423 125t-140 364v316h166v-281q0 -98 25.5 -167t75.5 -110.5t126 -60t174 -18.5q102 0 176 14t122 53t70.5 104.5t22.5 168.5v659h166v-291q0 -51 7.5 -93t30 -70.5t67.5 -45
t123 -16.5q39 113 107.5 228.5t163.5 208.5t216 151.5t262 58.5q209 0 321.5 -122t112.5 -349v-176h156q82 0 82 -82q0 -51 -19.5 -69.5t-62.5 -18.5h-1300zM2367 170v137q0 74 -15 136.5t-50 107.5t-91.5 69.5t-135.5 24.5q-98 0 -184.5 -43t-155 -110.5t-120.5 -152.5
t-83 -169h835z" />
    <glyph glyph-name="uniFEBB" unicode="&#x635;" horiz-adv-x="1933" arabic-form="initial" 
d="M1642 170v137q0 74 -15 136.5t-50 107.5t-91 69.5t-136 24.5q-98 0 -184.5 -43t-155 -110.5t-120.5 -152.5t-83 -169h835zM0 0q-82 0 -82 82q0 51 19.5 69.5t62.5 18.5h72q68 0 114.5 4t74.5 19.5t40 45t12 80.5v367h168v-291q0 -51 4 -93t19.5 -70.5t44.5 -45t78 -16.5
q39 113 107.5 228.5t163.5 208.5t216 151.5t262 58.5q209 0 321.5 -122t112.5 -349v-346h-1105q-63 0 -104.5 11.5t-67 29.5t-41 43t-27.5 49q-18 -43 -49 -68.5t-78 -40t-113.5 -19.5t-156.5 -5h-68z" />
    <glyph glyph-name="uniFEBC" unicode="&#x635;" horiz-adv-x="1966" arabic-form="medial" 
d="M705 0q-63 0 -104.5 11.5t-67 29.5t-41 43t-27.5 49q-18 -43 -49 -68.5t-78 -40t-113.5 -19.5t-156.5 -5h-68q-82 0 -82 82q0 51 19.5 69.5t62.5 18.5h72q68 0 114.5 4t74.5 19.5t40 45t12 80.5v367h168v-291q0 -51 4 -93t19.5 -70.5t44.5 -45t78 -16.5
q39 113 107.5 228.5t163.5 208.5t216 151.5t262 58.5q209 0 321.5 -122t112.5 -349v-176h156q82 0 82 -82q0 -51 -19.5 -69.5t-62.5 -18.5h-1261zM1642 170v137q0 74 -15 136.5t-50 107.5t-91 69.5t-136 24.5q-98 0 -184.5 -43t-155 -110.5t-120.5 -152.5t-83 -169h835z" />
    <glyph glyph-name="uniFEBE" unicode="&#x636;" horiz-adv-x="2691" arabic-form="final" 
d="M1391 0q-127 0 -185.5 29.5t-81.5 70.5v-75q0 -268 -147.5 -387t-413.5 -119q-283 0 -423 125t-140 364v316h166v-281q0 -98 25.5 -167t75.5 -110.5t126 -60t174 -18.5q102 0 176 14t122 53t70.5 104.5t22.5 168.5v659h166v-291q0 -51 7.5 -93t30 -70.5t67.5 -45
t123 -16.5q39 113 107.5 228.5t163.5 208.5t216 151.5t262 58.5q209 0 321.5 -122t112.5 -349v-176h156q82 0 82 -82q0 -51 -19.5 -69.5t-62.5 -18.5h-1300zM2367 170v137q0 74 -15 136.5t-50 107.5t-91.5 69.5t-135.5 24.5q-98 0 -184.5 -43t-155 -110.5t-120.5 -152.5
t-83 -169h835zM1972 1133q0 45 32 76.5t77 31.5t76.5 -31.5t31.5 -76.5t-31.5 -77t-76.5 -32t-77 32t-32 77z" />
    <glyph glyph-name="uniFEBF" unicode="&#x636;" horiz-adv-x="1933" arabic-form="initial" 
d="M1642 170v137q0 74 -15 136.5t-50 107.5t-91 69.5t-136 24.5q-98 0 -184.5 -43t-155 -110.5t-120.5 -152.5t-83 -169h835zM0 0q-82 0 -82 82q0 51 19.5 69.5t62.5 18.5h72q68 0 114.5 4t74.5 19.5t40 45t12 80.5v367h168v-291q0 -51 4 -93t19.5 -70.5t44.5 -45t78 -16.5
q39 113 107.5 228.5t163.5 208.5t216 151.5t262 58.5q209 0 321.5 -122t112.5 -349v-346h-1105q-63 0 -104.5 11.5t-67 29.5t-41 43t-27.5 49q-18 -43 -49 -68.5t-78 -40t-113.5 -19.5t-156.5 -5h-68zM1257 1133q0 45 32 76.5t77 31.5t76.5 -31.5t31.5 -76.5t-31.5 -77
t-76.5 -32t-77 32t-32 77z" />
    <glyph glyph-name="uniFEC0" unicode="&#x636;" horiz-adv-x="1966" arabic-form="medial" 
d="M705 0q-63 0 -104.5 11.5t-67 29.5t-41 43t-27.5 49q-18 -43 -49 -68.5t-78 -40t-113.5 -19.5t-156.5 -5h-68q-82 0 -82 82q0 51 19.5 69.5t62.5 18.5h72q68 0 114.5 4t74.5 19.5t40 45t12 80.5v367h168v-291q0 -51 4 -93t19.5 -70.5t44.5 -45t78 -16.5
q39 113 107.5 228.5t163.5 208.5t216 151.5t262 58.5q209 0 321.5 -122t112.5 -349v-176h156q82 0 82 -82q0 -51 -19.5 -69.5t-62.5 -18.5h-1261zM1642 170v137q0 74 -15 136.5t-50 107.5t-91 69.5t-136 24.5q-98 0 -184.5 -43t-155 -110.5t-120.5 -152.5t-83 -169h835z
M1253 1133q0 45 32 76.5t77 31.5t76.5 -31.5t31.5 -76.5t-31.5 -77t-76.5 -32t-77 32t-32 77z" />
    <glyph glyph-name="uniFEC2" unicode="&#x637;" horiz-adv-x="1611" arabic-form="final" 
d="M35 0v170h260v1292h168v-1001q104 172 244.5 264t326.5 92q199 0 310.5 -124t111.5 -347v-176h156q82 0 82 -82q0 -51 -19.5 -69.5t-62.5 -18.5h-1577zM1288 170v137q0 70 -14 132.5t-49 107.5t-91.5 71.5t-138.5 26.5q-98 0 -182 -45t-151.5 -113.5t-117.5 -152.5
t-81 -164h825z" />
    <glyph glyph-name="uniFEC3" unicode="&#x637;" horiz-adv-x="1515" arabic-form="initial" 
d="M0 0q-82 0 -82 82q0 51 19.5 69.5t62.5 18.5h231v1292h168v-1001q104 172 244.5 264t327.5 92q199 0 310.5 -124t111.5 -347v-346h-1393zM1225 170v137q0 70 -14.5 132.5t-49.5 107.5t-91 71.5t-138 26.5q-98 0 -182 -45t-152 -113.5t-118 -152.5t-81 -164h826z" />
    <glyph glyph-name="uniFEC4" unicode="&#x637;" horiz-adv-x="1548" arabic-form="medial" 
d="M0 0q-82 0 -82 82q0 51 19.5 69.5t62.5 18.5h231v1292h168v-1001q104 172 244.5 264t327.5 92q199 0 310.5 -124t111.5 -347v-176h155q82 0 82 -82q0 -51 -19.5 -69.5t-62.5 -18.5h-1548zM1225 170v137q0 70 -14.5 132.5t-49.5 107.5t-91 71.5t-138 26.5q-98 0 -182 -45
t-152 -113.5t-118 -152.5t-81 -164h826z" />
    <glyph glyph-name="uniFEC6" unicode="&#x638;" horiz-adv-x="1611" arabic-form="final" 
d="M35 0v170h260v1292h168v-1001q104 172 244.5 264t326.5 92q199 0 310.5 -124t111.5 -347v-176h156q82 0 82 -82q0 -51 -19.5 -69.5t-62.5 -18.5h-1577zM1288 170v137q0 70 -14 132.5t-49 107.5t-91.5 71.5t-138.5 26.5q-98 0 -182 -45t-151.5 -113.5t-117.5 -152.5
t-81 -164h825zM899 1133q0 45 32 76.5t77 31.5t76.5 -31.5t31.5 -76.5t-31.5 -77t-76.5 -32t-77 32t-32 77z" />
    <glyph glyph-name="uniFEC7" unicode="&#x638;" horiz-adv-x="1515" arabic-form="initial" 
d="M0 0q-82 0 -82 82q0 51 19.5 69.5t62.5 18.5h231v1292h168v-1001q104 172 244.5 264t327.5 92q199 0 310.5 -124t111.5 -347v-346h-1393zM1225 170v137q0 70 -14.5 132.5t-49.5 107.5t-91 71.5t-138 26.5q-98 0 -182 -45t-152 -113.5t-118 -152.5t-81 -164h826zM860 1133
q0 45 32 76.5t77 31.5t76.5 -31.5t31.5 -76.5t-31.5 -77t-76.5 -32t-77 32t-32 77z" />
    <glyph glyph-name="uniFEC8" unicode="&#x638;" horiz-adv-x="1548" arabic-form="medial" 
d="M0 0q-82 0 -82 82q0 51 19.5 69.5t62.5 18.5h231v1292h168v-1001q104 172 244.5 264t327.5 92q199 0 310.5 -124t111.5 -347v-176h155q82 0 82 -82q0 -51 -19.5 -69.5t-62.5 -18.5h-1548zM1225 170v137q0 70 -14.5 132.5t-49.5 107.5t-91 71.5t-138 26.5q-98 0 -182 -45
t-152 -113.5t-118 -152.5t-81 -164h826zM827 1133q0 45 32 76.5t77 31.5t76.5 -31.5t31.5 -76.5t-31.5 -77t-76.5 -32t-77 32t-32 77z" />
    <glyph glyph-name="uniFECA" unicode="&#x639;" horiz-adv-x="1083" arabic-form="final" 
d="M741 0q-63 0 -118.5 17.5t-116.5 72.5q-72 -37 -134.5 -81t-109.5 -96t-73.5 -115.5t-26.5 -137.5q0 -82 30.5 -139.5t86 -94t129 -54t159.5 -17.5h432v-174h-450q-123 0 -227.5 29.5t-181.5 88t-121 143.5t-44 193q0 98 28 178.5t81 149t133 128t182 114.5l-264 299
q6 23 15.5 47t20.5 48t22.5 43.5t23.5 31.5q66 66 158 104.5t203 38.5q90 0 156.5 -21.5t110.5 -57.5t65.5 -82t21.5 -93q0 -117 -67.5 -212t-184.5 -169q25 -8 53.5 -10t63.5 -2h286q82 0 82 -82q0 -51 -19.5 -69.5t-62.5 -18.5h-342zM567 657q-82 0 -154.5 -32.5
t-115.5 -85.5l248 -263q98 51 159.5 118t61.5 141q0 47 -47.5 84.5t-151.5 37.5z" />
    <glyph glyph-name="uniFECB" unicode="&#x639;" horiz-adv-x="1024" arabic-form="initial" 
d="M0 0q-82 0 -82 82q0 51 19.5 69.5t62.5 18.5h252q-37 39 -61.5 100.5t-24.5 139.5q0 106 40 184t104.5 129t143 75.5t158.5 24.5q72 0 125.5 -8t75.5 -18v-183q-39 12 -84 21.5t-111 9.5q-129 0 -204.5 -63.5t-75.5 -173.5q0 -104 64.5 -171t199.5 -67h299v-170h-901z
" />
    <glyph glyph-name="uniFECC" unicode="&#x639;" horiz-adv-x="1083" arabic-form="medial" 
d="M0 0q-82 0 -82 82q0 51 19.5 69.5t62.5 18.5h92q78 0 154 10t145 33l-256 291q6 23 15.5 47t20.5 48t22.5 43.5t23.5 31.5q66 66 158 104.5t203 38.5q90 0 156.5 -21.5t110.5 -57.5t65.5 -82t21.5 -93q0 -113 -63.5 -211t-174.5 -174q35 -8 103 -8h286q82 0 82 -82
q0 -51 -19.5 -69.5t-62.5 -18.5h-342q-59 0 -113.5 15.5t-113.5 66.5q-98 -39 -200.5 -60.5t-213.5 -21.5h-100zM567 657q-82 0 -154.5 -32.5t-115.5 -85.5l250 -265q98 49 158.5 117t60.5 144q0 47 -47.5 84.5t-151.5 37.5z" />
    <glyph glyph-name="uniFECE" unicode="&#x63a;" horiz-adv-x="1083" arabic-form="final" 
d="M741 0q-63 0 -118.5 17.5t-116.5 72.5q-72 -37 -134.5 -81t-109.5 -96t-73.5 -115.5t-26.5 -137.5q0 -82 30.5 -139.5t86 -94t129 -54t159.5 -17.5h432v-174h-450q-123 0 -227.5 29.5t-181.5 88t-121 143.5t-44 193q0 98 28 178.5t81 149t133 128t182 114.5l-264 299
q6 23 15.5 47t20.5 48t22.5 43.5t23.5 31.5q66 66 158 104.5t203 38.5q90 0 156.5 -21.5t110.5 -57.5t65.5 -82t21.5 -93q0 -117 -67.5 -212t-184.5 -169q25 -8 53.5 -10t63.5 -2h286q82 0 82 -82q0 -51 -19.5 -69.5t-62.5 -18.5h-342zM567 657q-82 0 -154.5 -32.5
t-115.5 -85.5l248 -263q98 51 159.5 118t61.5 141q0 47 -47.5 84.5t-151.5 37.5zM459 1133q0 45 32 76.5t77 31.5t76.5 -31.5t31.5 -76.5t-31.5 -77t-76.5 -32t-77 32t-32 77z" />
    <glyph glyph-name="uniFECF" unicode="&#x63a;" horiz-adv-x="1024" arabic-form="initial" 
d="M0 0q-82 0 -82 82q0 51 19.5 69.5t62.5 18.5h252q-37 39 -61.5 100.5t-24.5 139.5q0 106 40 184t104.5 129t143 75.5t158.5 24.5q72 0 125.5 -8t75.5 -18v-183q-39 12 -84 21.5t-111 9.5q-129 0 -204.5 -63.5t-75.5 -173.5q0 -104 64.5 -171t199.5 -67h299v-170h-901z
M471 1133q0 45 32 76.5t77 31.5t76.5 -31.5t31.5 -76.5t-31.5 -77t-76.5 -32t-77 32t-32 77z" />
    <glyph glyph-name="uniFED0" unicode="&#x63a;" horiz-adv-x="1083" arabic-form="medial" 
d="M0 0q-82 0 -82 82q0 51 19.5 69.5t62.5 18.5h92q78 0 154 10t145 33l-256 291q6 23 15.5 47t20.5 48t22.5 43.5t23.5 31.5q66 66 158 104.5t203 38.5q90 0 156.5 -21.5t110.5 -57.5t65.5 -82t21.5 -93q0 -113 -63.5 -211t-174.5 -174q35 -8 103 -8h286q82 0 82 -82
q0 -51 -19.5 -69.5t-62.5 -18.5h-342q-59 0 -113.5 15.5t-113.5 66.5q-98 -39 -200.5 -60.5t-213.5 -21.5h-100zM567 657q-82 0 -154.5 -32.5t-115.5 -85.5l250 -265q98 49 158.5 117t60.5 144q0 47 -47.5 84.5t-151.5 37.5zM463 1133q0 45 32 76.5t77 31.5t76.5 -31.5
t31.5 -76.5t-31.5 -77t-76.5 -32t-77 32t-32 77z" />
    <glyph glyph-name="uniFED2" unicode="&#x641;" horiz-adv-x="2084" arabic-form="final" 
d="M414 0q-119 0 -198 16.5t-127 52t-68.5 92t-20.5 138.5v317h168v-256q0 -63 15.5 -101t52 -57.5t100 -25.5t162.5 -6h710q-23 43 -39 95t-16 120q0 80 26.5 158t78 138t126 98t172.5 38q113 0 184.5 -41t113.5 -104.5t58.5 -140t16.5 -150.5v-211h156q82 0 82 -82
q0 -51 -19.5 -69.5t-62.5 -18.5h-1671zM1313 412q0 -125 73.5 -183.5t180.5 -58.5h196v205q0 49 -9 99t-33.5 90t-67.5 65.5t-109 25.5q-55 0 -98 -19.5t-73 -52t-45 -77.5t-15 -94zM1460 1133q0 45 32 76.5t77 31.5t76.5 -31.5t31.5 -76.5t-31.5 -77t-76.5 -32t-77 32
t-32 77z" />
    <glyph glyph-name="uniFED3" unicode="&#x641;" horiz-adv-x="1077" arabic-form="initial" 
d="M338 412q0 -125 73.5 -183.5t180.5 -58.5h196v205q0 49 -9 99t-33.5 90t-67.5 65.5t-109 25.5q-55 0 -98 -19.5t-72.5 -52t-45 -77.5t-15.5 -94zM0 0q-82 0 -82 82q0 51 19.5 69.5t62.5 18.5h233q-23 43 -39 95t-16 120q0 80 26.5 158t78 138t126 98t173.5 38
q113 0 184.5 -41t113.5 -104.5t58 -140t16 -150.5v-381h-954zM475 1133q0 45 32 76.5t77 31.5t76.5 -31.5t31.5 -76.5t-31.5 -77t-76.5 -32t-77 32t-32 77z" />
    <glyph glyph-name="uniFED4" unicode="&#x641;" horiz-adv-x="1110" arabic-form="medial" 
d="M0 0q-82 0 -82 82q0 51 19.5 69.5t62.5 18.5h233q-23 43 -39 95t-16 120q0 80 26.5 158t78 138t126 98t173.5 38q113 0 184.5 -41t113.5 -104.5t58 -140t16 -150.5v-211h156q82 0 82 -82q0 -51 -19.5 -69.5t-62.5 -18.5h-1110zM338 412q0 -125 73.5 -183.5t180.5 -58.5
h196v205q0 49 -9 99t-33.5 90t-67.5 65.5t-109 25.5q-55 0 -98 -19.5t-72.5 -52t-45 -77.5t-15.5 -94zM471 1133q0 45 32 76.5t77 31.5t76.5 -31.5t31.5 -76.5t-31.5 -77t-76.5 -32t-77 32t-32 77z" />
    <glyph glyph-name="uniFED6" unicode="&#x642;" horiz-adv-x="1521" arabic-form="final" 
d="M1358 0q-14 -125 -67.5 -215t-139.5 -149.5t-205 -88t-262 -28.5q-190 0 -321.5 37.5t-211 104.5t-115.5 158t-36 199v306h166v-269q0 -184 127 -276t391 -92q98 0 190.5 15t163 52t112.5 96.5t42 149.5h-231q-84 0 -155 18.5t-123 60.5t-82 109.5t-30 167.5q0 84 28 164
t80 141.5t127 99.5t171 38q106 0 180 -38t120 -107.5t66.5 -168t20.5 -219.5v-96h158q82 0 82 -82q0 -51 -19.5 -69.5t-62.5 -18.5h-164zM735 373q0 -104 60.5 -153.5t177.5 -49.5h219v135q0 154 -51 243t-176 89q-59 0 -102.5 -23.5t-71 -61.5t-42 -85t-14.5 -94zM752 1133
q0 45 32 76.5t77 31.5t76.5 -31.5t31.5 -76.5t-31.5 -77t-76.5 -32t-77 32t-32 77zM1018 1133q0 45 32 76.5t77 31.5t76.5 -31.5t31.5 -76.5t-31.5 -77t-76.5 -32t-77 32t-32 77z" />
    <glyph glyph-name="uniFED7" unicode="&#x642;" horiz-adv-x="1097" arabic-form="initial" 
d="M342 1133q0 45 32 76.5t77 31.5t76.5 -31.5t31.5 -76.5t-31.5 -77t-76.5 -32t-77 32t-32 77zM608 1133q0 45 32 76.5t77 31.5t76.5 -31.5t31.5 -76.5t-31.5 -77t-76.5 -32t-77 32t-32 77zM363 412q0 -125 73.5 -183.5t180.5 -58.5h196v205q0 49 -9 99t-33.5 90
t-67.5 65.5t-109 25.5q-55 0 -98 -19.5t-72.5 -52t-45 -77.5t-15.5 -94zM25 0q-82 0 -82 82q0 51 19.5 69.5t62.5 18.5h233q-23 43 -39 95t-16 120q0 80 26.5 158t78 138t126 98t173.5 38q113 0 184.5 -41t113.5 -104.5t58 -140t16 -150.5v-381h-954z" />
    <glyph glyph-name="uniFED8" unicode="&#x642;" horiz-adv-x="1110" arabic-form="medial" 
d="M0 0q-82 0 -82 82q0 51 19.5 69.5t62.5 18.5h233q-23 43 -39 95t-16 120q0 80 26.5 158t78 138t126 98t173.5 38q113 0 184.5 -41t113.5 -104.5t58 -140t16 -150.5v-211h156q82 0 82 -82q0 -51 -19.5 -69.5t-62.5 -18.5h-1110zM338 412q0 -125 73.5 -183.5t180.5 -58.5
h196v205q0 49 -9 99t-33.5 90t-67.5 65.5t-109 25.5q-55 0 -98 -19.5t-72.5 -52t-45 -77.5t-15.5 -94zM311 1133q0 45 32 76.5t77 31.5t76.5 -31.5t31.5 -76.5t-31.5 -77t-76.5 -32t-77 32t-32 77zM577 1133q0 45 32 76.5t77 31.5t76.5 -31.5t31.5 -76.5t-31.5 -77
t-76.5 -32t-77 32t-32 77z" />
    <glyph glyph-name="uniFEDA" unicode="&#x643;" horiz-adv-x="1832" arabic-form="final" 
d="M1833 0q-80 0 -129 38t-66 95q-18 -43 -48.5 -68.5t-77 -40t-112 -19.5t-153.5 -5h-833q-119 0 -198 16.5t-127 52t-68.5 92t-20.5 138.5v317h168v-256q0 -63 15.5 -101t52 -57.5t100 -25.5t162.5 -6h747q68 0 115 4t74.5 19.5t40 45t12.5 80.5v1143h168v-1067
q0 -51 7 -93t27.5 -70.5t55.5 -45t88 -16.5q82 0 82 -82q0 -51 -19.5 -69.5t-62.5 -18.5zM1055 604h-375v94h92q-29 47 -29 103q0 92 53.5 138t121.5 46q35 0 60.5 -4t37.5 -14v-97q-41 18 -88 19q-49 0 -71.5 -29t-22.5 -63q0 -41 26.5 -70t79.5 -29h115v-94z" />
    <glyph glyph-name="uniFEDB" unicode="&#x643;" horiz-adv-x="985" arabic-form="initial" 
d="M0 0q-82 0 -82 82q0 51 19.5 69.5t62.5 18.5h489q76 0 126.5 26.5t50.5 102.5q0 53 -50.5 121.5t-133.5 139.5t-190.5 139.5t-219.5 123.5q2 25 12 50.5t22.5 47t25.5 38t22 22.5l749 330v-166l-602 -266q143 -84 243.5 -164t163 -154t91 -142.5t28.5 -129.5
q0 -43 -13 -94.5t-50 -94.5t-104.5 -71.5t-174.5 -28.5h-485z" />
    <glyph glyph-name="uniFEDC" unicode="&#x643;" horiz-adv-x="1042" arabic-form="medial" 
d="M0 0q-82 0 -82 82q0 51 19.5 69.5t62.5 18.5h459q113 0 162 36t49 95q0 55 -45 124t-125 139.5t-187.5 139t-232.5 123.5q2 25 9 51.5t16.5 49t19.5 38t18 19.5l766 330v-170l-602 -266q217 -111 345 -236t171 -250q25 -72 47.5 -114.5t48 -67.5t55.5 -33t68 -8
q82 0 82 -82q0 -51 -19.5 -69.5t-62.5 -18.5t-78.5 5t-66.5 21.5t-58.5 48t-52.5 85.5h-8q-39 -96 -131 -128t-225 -32h-422z" />
    <glyph glyph-name="uniFEDE" unicode="&#x644;" horiz-adv-x="1284" arabic-form="final" 
d="M1124 0q-8 -260 -152.5 -392t-408.5 -132q-139 0 -244.5 39t-176 109.5t-106.5 167.5t-36 216v316h166v-281q0 -399 401 -399q207 0 299 89t92 294v1435h166v-1292h160q82 0 82 -82q0 -51 -19.5 -69.5t-62.5 -18.5h-160z" />
    <glyph glyph-name="uniFEDF" unicode="&#x644;" horiz-adv-x="630" arabic-form="initial" 
d="M0 0q-82 0 -82 82q0 51 19.5 69.5t62.5 18.5h319v1292h168v-1462h-487z" />
    <glyph glyph-name="uniFEE0" unicode="&#x644;" horiz-adv-x="663" arabic-form="medial" 
d="M0 0q-82 0 -82 82q0 51 19.5 69.5t62.5 18.5h164q37 0 65.5 4t48 19.5t30.5 45t11 80.5v1143h168v-1067q0 -104 42 -164.5t135 -60.5q82 0 81 -82q0 -51 -19 -69.5t-62 -18.5q-80 0 -128.5 38t-64.5 95q-37 -84 -118 -108.5t-208 -24.5h-145z" />
    <glyph glyph-name="uniFEE2" unicode="&#x645;" horiz-adv-x="1259" arabic-form="final" 
d="M1260 0q-78 0 -135.5 30.5t-92.5 104.5v4q-39 -78 -113.5 -122t-187.5 -44q-98 0 -195.5 33t-201.5 111q-55 -12 -88 -34t-49.5 -57.5t-20.5 -90t-4 -132.5v-622h-172v626q0 102 11.5 179t43 133.5t88 97.5t146.5 72q25 137 74 229t109 147.5t125 78t120 22.5
q76 0 142.5 -29.5t114.5 -84t75.5 -129t27.5 -167.5q0 -14 -1 -27.5t-1 -25.5q20 -66 59.5 -99.5t125.5 -33.5q82 0 81 -82q0 -51 -19 -69.5t-62 -18.5zM907 362q0 45 -13 88.5t-39 76t-62.5 52t-85.5 19.5q-86 0 -166 -80t-127 -262q76 -49 150.5 -79t152.5 -30
q86 0 138 49t52 166z" />
    <glyph glyph-name="uniFEE3" unicode="&#x645;" horiz-adv-x="1179" arabic-form="initial" 
d="M0 0q-82 0 -82 82q0 51 19.5 69.5t62.5 18.5h84q25 0 51.5 6t53 26.5t52 56.5t48.5 97q47 131 99 212t106.5 125t111 58.5t111.5 14.5q76 0 142.5 -29.5t114.5 -84t75.5 -129t27.5 -167.5q0 -178 -84 -280.5t-262 -102.5q-98 0 -195.5 33t-201.5 111q-27 -41 -54.5 -64.5
t-58.5 -35t-63.5 -14.5t-69.5 -3h-88zM907 362q0 45 -13 88.5t-39 76t-62.5 52t-85.5 19.5q-86 0 -158 -76t-135 -266q76 -49 150.5 -79t152.5 -30q86 0 138 49t52 166z" />
    <glyph glyph-name="uniFEE4" unicode="&#x645;" horiz-adv-x="1259" arabic-form="medial" 
d="M1260 0q-78 0 -135.5 30.5t-92.5 104.5v4q-39 -78 -113.5 -122t-187.5 -44q-98 0 -195.5 33t-201.5 111q-27 -41 -54.5 -64.5t-58.5 -35t-63.5 -14.5t-69.5 -3h-88q-82 0 -82 82q0 51 19.5 69.5t62.5 18.5h84q25 0 51.5 6t53 26.5t52 56.5t48.5 97q47 131 99 212
t106.5 125t111 58.5t111.5 14.5q76 0 142.5 -29.5t114.5 -84t75.5 -129t27.5 -167.5q0 -14 -1 -27.5t-1 -25.5q20 -66 59.5 -99.5t125.5 -33.5q82 0 81 -82q0 -51 -19 -69.5t-62 -18.5zM907 362q0 45 -13 88.5t-39 76t-62.5 52t-85.5 19.5q-86 0 -158 -76t-135 -266
q76 -49 150.5 -79t152.5 -30q86 0 138 49t52 166z" />
    <glyph glyph-name="uniFEE6" unicode="&#x646;" horiz-adv-x="1302" arabic-form="final" 
d="M1303 0q-72 0 -114 29.5t-65 70.5v-75q0 -270 -147.5 -389t-413.5 -119q-283 0 -423 126t-140 365v316h166v-281q0 -199 101.5 -278.5t299.5 -79.5q102 0 176 15t122 53t70.5 104.5t22.5 169.5v526h166v-158q0 -51 6.5 -93t26 -70.5t54 -45t92.5 -16.5q82 0 81 -82
q0 -51 -19 -69.5t-62 -18.5zM471 734q0 45 32 76.5t77 31.5t76.5 -31.5t31.5 -76.5t-31.5 -77t-76.5 -32t-77 32t-32 77z" />
    <glyph glyph-name="uniFEE7" unicode="&#x646;" horiz-adv-x="624" arabic-form="initial" 
d="M284 1133q0 45 32 76.5t77 31.5t76.5 -31.5t31.5 -76.5t-31.5 -77t-76.5 -32t-77 32t-32 77zM-2 0q-82 0 -82 82q0 51 19.5 69.5t62.5 18.5h319v618h168v-788h-487z" />
    <glyph glyph-name="uniFEE8" unicode="&#x646;" horiz-adv-x="671" arabic-form="medial" 
d="M0 0q-82 0 -82 82q0 51 19.5 69.5t62.5 18.5h137q49 0 84 4t58.5 19.5t35 45t11.5 80.5v469h168v-393q0 -51 7 -93t27.5 -70.5t55 -45t88.5 -16.5q82 0 82 -82q0 -51 -19.5 -69.5t-62.5 -18.5q-80 0 -129 38t-66 95q-37 -84 -115.5 -108.5t-193.5 -24.5h-168zM307 1133
q0 45 32 76.5t77 31.5t76.5 -31.5t31.5 -76.5t-31.5 -77t-76.5 -32t-77 32t-32 77z" />
    <glyph glyph-name="uniFEE9" unicode="&#x647;" horiz-adv-x="1327" arabic-form="isolated" 
d="M295 170q-20 29 -38.5 82t-18.5 131q0 106 49 199.5t151 130.5q-41 0 -82 -1t-84 -3v153q223 12 400.5 -20.5t299.5 -117.5t186.5 -227.5t64.5 -346.5v-150h-1006q-41 0 -62.5 -9t-31.5 -25.5t-12 -40t-2 -52.5h-80q-16 41 -23.5 82t-7.5 68q0 47 16.5 76.5t42 45
t56 20.5t59.5 5h123zM553 170q41 2 67.5 23.5t42 53.5t21.5 68.5t6 69.5q0 45 -8 87t-26.5 75t-47 51t-69.5 18q-72 0 -112 -65.5t-40 -169.5q0 -37 7 -74t24.5 -66.5t45.5 -49t71 -21.5h10h8zM1051 170q0 219 -89.5 338t-242.5 166q35 -27 57.5 -63t36.5 -73.5t19.5 -75.5
t5.5 -71q0 -78 -14.5 -132t-32.5 -89h260z" />
    <glyph glyph-name="uniFEEA" unicode="&#x647;" horiz-adv-x="950" arabic-form="final" 
d="M170 535q0 -86 54.5 -139.5t172.5 -53.5q45 0 97.5 10t93.5 27v364h-180q-98 0 -168 -49.5t-70 -158.5zM383 168q-49 0 -113.5 14.5t-123 52t-99.5 106.5t-41 179q0 111 39 185.5t100.5 121.5t136 67.5t148.5 20.5h326v-587q0 -86 26.5 -122t118.5 -36h49q82 0 82 -82
q0 -51 -19.5 -69.5t-62.5 -18.5h-69q-53 0 -101.5 9t-86.5 33t-64.5 62.5t-34.5 100.5q-45 -16 -101.5 -26.5t-109.5 -10.5z" />
    <glyph glyph-name="uniFEEB" unicode="&#x647;" horiz-adv-x="1355" arabic-form="initial" 
d="M0 0q-82 0 -82 82q0 51 19.5 69.5t62.5 18.5h326q-20 29 -39 82t-19 131q0 106 49.5 199.5t151.5 130.5q-41 0 -82 -1t-84 -3v153q223 12 400.5 -20.5t299 -117.5t186 -227.5t64.5 -346.5v-150h-1253zM575 170q43 0 72 21.5t45.5 53t22.5 69.5t6 71q0 45 -8 87t-26.5 75
t-47.5 51t-70 18q-72 0 -111.5 -65.5t-39.5 -169.5q0 -37 7 -74t24.5 -66.5t45 -49t70.5 -21.5h10zM1081 170q0 219 -89 338t-242 166q35 -27 57 -63t36.5 -73.5t19.5 -75.5t5 -71q0 -78 -14 -132t-33 -89h260z" />
    <glyph glyph-name="uniFEEC" unicode="&#x647;" horiz-adv-x="1069" arabic-form="medial" 
d="M838 0v-8q51 -49 64 -102.5t13 -92.5q0 -59 -20.5 -114.5t-60 -96.5t-100 -65.5t-140.5 -24.5q-106 0 -178 34t-116 96.5t-62.5 151.5t-18.5 199v23h-219q-82 0 -82 82q0 51 19.5 69.5t62.5 18.5h219v119q0 254 99.5 390t279.5 136q90 0 151.5 -32.5t99.5 -82
t54.5 -106.5t16.5 -107q0 -113 -44.5 -187.5t-101.5 -121.5v-8h297q82 0 82 -82q0 -51 -19.5 -69.5t-62.5 -18.5h-233zM387 170h92q78 0 132.5 29.5t87 73.5t47 94.5t14.5 91.5q0 98 -49 144t-115 46q-100 0 -154.5 -89t-54.5 -255v-135zM387 0v-39q0 -66 7 -121t29.5 -96
t62.5 -64.5t106 -23.5q86 0 128 43t42 119q0 18 -6 50t-30 60.5t-68 50t-119 21.5h-152z" />
    <glyph glyph-name="uniFEEE" unicode="&#x648;" horiz-adv-x="1013" arabic-form="final" 
d="M866 0q-8 -125 -52 -207t-120 -131t-181 -69.5t-234 -20.5h-86v170h63q94 0 175 9t139.5 37t92 78t35.5 134h-231q-84 0 -154.5 18.5t-123 60.5t-82 109.5t-29.5 167.5q0 84 27.5 164t80 141.5t127 99.5t170.5 38q106 0 180 -38t120 -107.5t66.5 -168t20.5 -219.5v-96
h144q82 0 82 -82q0 -51 -19.5 -69.5t-62.5 -18.5h-148zM242 373q0 -104 60 -153.5t177 -49.5h219v135q0 154 -51 243t-176 89q-59 0 -102 -23.5t-71 -61.5t-42 -85t-14 -94z" />
    <glyph glyph-name="uniFEF0" unicode="&#x649;" horiz-adv-x="1454" arabic-form="final" 
d="M1313 0q23 -25 39 -69t16 -85q0 -61 -36 -120.5t-115.5 -105.5t-207.5 -73.5t-315 -27.5q-207 0 -341 37.5t-213 103.5t-109.5 155t-30.5 193v316h166v-285q0 -182 125 -267t407 -85q104 0 198.5 11t165.5 32.5t111.5 54.5t40.5 76q0 47 -48 84t-118.5 65.5t-150.5 50
t-141 39.5v166q264 -96 493 -96h207q82 0 82 -82q0 -51 -19.5 -69.5t-62.5 -18.5h-143z" />
    <glyph glyph-name="uniFEF2" unicode="&#x64a;" horiz-adv-x="1454" arabic-form="final" 
d="M1313 0q23 -25 39 -69t16 -85q0 -61 -36 -120.5t-115.5 -105.5t-207.5 -73.5t-315 -27.5q-207 0 -341 37.5t-213 103.5t-109.5 155t-30.5 193v316h166v-285q0 -182 125 -267t407 -85q104 0 198.5 11t165.5 32.5t111.5 54.5t40.5 76q0 47 -48 84t-118.5 65.5t-150.5 50
t-141 39.5v166q264 -96 493 -96h207q82 0 82 -82q0 -51 -19.5 -69.5t-62.5 -18.5h-143zM428 -794q0 45 32 76.5t77 31.5t76.5 -31.5t31.5 -76.5t-31.5 -77t-76.5 -32t-77 32t-32 77zM694 -794q0 45 32 76.5t77 31.5t76.5 -31.5t31.5 -76.5t-31.5 -77t-76.5 -32t-77 32
t-32 77z" />
    <glyph glyph-name="uniFEF3" unicode="&#x64a;" horiz-adv-x="630" arabic-form="initial" 
d="M0 0q-82 0 -82 82q0 51 19.5 69.5t62.5 18.5h319v618h168v-788h-487zM84 -309q0 45 32 76.5t77 31.5t76.5 -31.5t31.5 -76.5t-31.5 -77t-76.5 -32t-77 32t-32 77zM350 -309q0 45 32 76.5t77 31.5t76.5 -31.5t31.5 -76.5t-31.5 -77t-76.5 -32t-77 32t-32 77z" />
    <glyph glyph-name="uniFEF4" unicode="&#x64a;" horiz-adv-x="671" arabic-form="medial" 
d="M0 0q-82 0 -82 82q0 51 19.5 69.5t62.5 18.5h137q49 0 84 4t58.5 19.5t35 45t11.5 80.5v469h168v-393q0 -51 7 -93t27.5 -70.5t55 -45t88.5 -16.5q82 0 82 -82q0 -51 -19.5 -69.5t-62.5 -18.5q-80 0 -129 38t-66 95q-37 -84 -115.5 -108.5t-193.5 -24.5h-168zM162 -309
q0 45 32 76.5t77 31.5t76.5 -31.5t31.5 -76.5t-31.5 -77t-76.5 -32t-77 32t-32 77zM428 -309q0 45 32 76.5t77 31.5t76.5 -31.5t31.5 -76.5t-31.5 -77t-76.5 -32t-77 32t-32 77z" />
    <glyph glyph-name=".notdef" horiz-adv-x="569" 
 />
    <glyph glyph-name="glyph1" horiz-adv-x="1024" 
 />
    <glyph glyph-name="uni000D" unicode="&#xd;" horiz-adv-x="409" 
 />
    <glyph glyph-name="space" unicode=" " horiz-adv-x="569" 
 />
    <glyph glyph-name="exclam" unicode="!" horiz-adv-x="587" 
d="M397 362h-166v1096h166v-1096zM229 184q35 35 86 35t86 -35t35 -86t-35 -86t-86 -35t-86 35t-34 86q-1 51 34 86z" />
    <glyph glyph-name="quotedbl" unicode="&#x22;" horiz-adv-x="698" 
d="M141 1458h170l-37 -506h-133v506zM418 1458h172l-41 -506h-131v506z" />
    <glyph glyph-name="numbersign" unicode="#" horiz-adv-x="1437" 
d="M1026 596h360l-40 -160h-369l-131 -448h-176l131 448h-273l-131 -448h-176l133 448h-313l35 160h325l80 270h-358l35 164h372l127 426h177l-127 -426h272l125 426h180l-129 -426h315l-43 -164h-323zM659 866l-79 -270h270l80 270h-271z" />
    <glyph glyph-name="dollar" unicode="$" horiz-adv-x="1144" 
d="M324 922q63 -43 194 -72v471q-98 -8 -178 -68q-86 -63 -94 -166q-8 -108 78 -165zM666 821q213 -43 313 -114q160 -111 147 -340q-10 -180 -157 -291q-131 -98 -303 -109v-207h-148v207q-344 25 -467 309l152 68q86 -188 315 -209v551q-205 45 -297 109
q-150 100 -141 301q6 174 147 280q125 96 291 109v207h148v-207q342 -20 464 -301l-151 -68q-82 190 -313 205v-500zM666 133q104 8 192 70q92 63 103 170q10 131 -82 198q-72 51 -213 84v-522z" />
    <glyph glyph-name="percent" unicode="%" horiz-adv-x="1499" 
d="M621 758q-88 -111 -232 -111q-322 0 -321 408q0 182 88 293q90 111 233 110q150 0 236 -108q86 -109 86 -299q0 -182 -90 -293zM1395 94q-90 -111 -232 -110q-322 0 -321 407q0 182 88 293q90 111 233 111q150 0 236 -109q84 -109 84 -299q0 -182 -88 -293zM1159 635
q-152 0 -151 -244q0 -244 155 -244q156 0 156 240q0 248 -160 248zM1341 1466l-1026 -1626l-141 86l1028 1626zM387 1296q-154 0 -154 -241q0 -244 156 -244t156 240q0 245 -158 245z" />
    <glyph glyph-name="ampersand" unicode="&#x26;" horiz-adv-x="1263" 
d="M965 471l108 180l141 -69l-137 -224l246 -282h-215l-123 139q-174 -233 -434 -233q-193 0 -320 114q-131 119 -131 310q0 154 107 264q61 63 201 147q-158 184 -158 322q0 154 115 250q106 86 260 86q137 0 235 -86q102 -90 103 -230q0 -141 -105 -244q-63 -61 -192 -129
zM512 707q-111 -66 -162 -117q-82 -80 -82 -180q0 -121 88 -197q84 -74 211 -74q174 0 310 191zM475 1272q-57 -51 -57 -129q0 -90 137 -252q242 125 242 260q0 76 -52 125q-49 49 -129 49q-84 0 -141 -53z" />
    <glyph glyph-name="quotesingle" unicode="'" horiz-adv-x="458" 
d="M231 1458h199l-170 -506h-168z" />
    <glyph glyph-name="parenleft" unicode="(" horiz-adv-x="520" 
d="M551 1530q-268 -338 -268 -832q0 -408 272 -837l-133 -86q-305 422 -305 923q0 508 297 924z" />
    <glyph glyph-name="parenright" unicode=")" horiz-adv-x="522" 
d="M25 -197q272 344 272 834q0 449 -270 876l133 84q305 -422 305 -960q0 -510 -297 -924z" />
    <glyph glyph-name="asterisk" unicode="*" horiz-adv-x="841" 
d="M518 1163l281 94l45 -143l-281 -88l178 -240l-112 -88l-185 244l-174 -244l-118 86l178 246l-285 90l43 140l289 -95v293h141v-295z" />
    <glyph glyph-name="plus" unicode="+" horiz-adv-x="1247" 
d="M113 780h462v453h164v-453h445v-164h-445v-456h-164v456h-462v164z" />
    <glyph glyph-name="comma" unicode="," horiz-adv-x="540" 
d="M274 219h193l-170 -506h-168z" />
    <glyph glyph-name="hyphen" unicode="-" horiz-adv-x="667" 
d="M86 698h545v-163h-545v163z" />
    <glyph glyph-name="period" unicode="." horiz-adv-x="462" 
d="M176 184q35 35 86 35t86 -35t35 -86t-35 -86t-86 -35t-86 35t-35 86t35 86z" />
    <glyph glyph-name="slash" unicode="/" horiz-adv-x="741" 
d="M647 1538l150 -53l-627 -1573l-152 51z" />
    <glyph glyph-name="zero" unicode="0" horiz-adv-x="1206" 
d="M258 406q0 -137 119 -209q102 -61 254 -62q150 0 250 62q119 72 118 209v645q0 139 -118 211q-100 61 -250 61q-152 0 -254 -61q-119 -72 -119 -211v-645zM268 72q-176 123 -176 334v645q0 213 176 333q152 104 363 105q209 0 358 -105q176 -121 176 -333v-645
q0 -211 -176 -332q-150 -106 -358 -107q-211 1 -363 105z" />
    <glyph glyph-name="one" unicode="1" horiz-adv-x="653" 
d="M391 1460h156v-1470h-166v1224l-215 -221l-123 101z" />
    <glyph glyph-name="two" unicode="2" horiz-adv-x="1103" 
d="M211 1100l-148 65q68 164 211 244q139 78 314 72q352 -10 463 -275q113 -268 -156 -526l-549 -522h733v-166h-970l-52 121l719 684q190 180 121 348q-68 164 -311 174q-275 8 -375 -219z" />
    <glyph glyph-name="three" unicode="3" horiz-adv-x="1161" 
d="M188 340q55 -115 179 -164q119 -47 254 -37q139 12 227 80q94 74 94 197q0 295 -330 293h-141v157h141q266 0 267 215q0 109 -78 172q-72 59 -187 68q-113 10 -213 -31q-106 -43 -159 -143l-142 76q72 150 230 215q143 59 307 41q170 -18 281 -115q123 -109 122 -283
q0 -215 -122 -284q190 -70 190 -383q-2 -193 -143 -314q-123 -109 -316 -129q-186 -20 -350 49q-176 74 -260 246z" />
    <glyph glyph-name="four" unicode="4" horiz-adv-x="1081" 
d="M985 516h117v-156h-117v-366h-168v366h-682l-110 150l784 950h176v-944zM821 1231l-585 -715h581z" />
    <glyph glyph-name="five" unicode="5" horiz-adv-x="1171" 
d="M219 340q55 -115 176 -162q117 -45 250 -31q137 14 223 86q92 76 93 199v88q0 133 -107 205q-98 63 -256 63q-195 0 -379 -88l-94 -6v764h928v-166h-760v-389q141 59 305 55q213 0 356 -102q170 -119 172 -334v-92q-2 -193 -139 -315q-123 -111 -311 -135
q-184 -25 -346 43q-176 72 -260 243z" />
    <glyph glyph-name="six" unicode="6" horiz-adv-x="1241" 
d="M1022 1116q-94 197 -363 197q-164 0 -270 -70q-117 -76 -117 -205v-229q88 127 387 127q219 -2 371 -109q170 -123 170 -329v-86q0 -209 -170 -330q-152 -109 -371 -109q-223 -2 -376 107q-174 123 -177 332v628q0 209 175 330q156 109 378 107q371 0 512 -285zM1034 496
q0 129 -112 204q-106 70 -263 70q-164 0 -270 -70q-117 -76 -117 -204v-82q0 -129 117 -205q106 -70 270 -70q156 0 263 70q113 76 112 205v82z" />
    <glyph glyph-name="seven" unicode="7" horiz-adv-x="1024" 
d="M819 1294h-768v166h934l55 -112l-776 -1358h-190z" />
    <glyph glyph-name="eight" unicode="8" horiz-adv-x="1171" 
d="M623 133q150 0 251 68q121 78 121 217q0 283 -372 282h-37q-373 0 -373 -282q0 -139 119 -217q104 -68 254 -68h37zM586 -35q-217 0 -367 113q-168 125 -170 338q0 135 64 239q70 113 174 146v-29q-172 70 -172 301q2 193 149 303q131 98 322 99h37q190 0 321 -99
q150 -111 150 -303q0 -231 -172 -301v29q104 -33 174 -146q66 -104 65 -239q-4 -213 -172 -338q-152 -113 -366 -113h-37zM586 1315q-131 0 -215 -60q-92 -66 -92 -182q0 -213 307 -213h37q307 0 307 213q0 117 -92 182q-84 59 -215 60h-37z" />
    <glyph glyph-name="nine" unicode="9" horiz-adv-x="1222" 
d="M248 334q94 -197 364 -197q162 0 269 70q117 76 116 205v227q-88 -125 -385 -125q-221 2 -372 109q-170 121 -170 327v88q0 207 170 328q152 109 372 109q221 2 375 -107q174 -121 176 -330v-628q0 -209 -174 -332q-156 -109 -377 -107q-373 0 -514 287zM236 952
q0 -127 112 -202q106 -72 264 -72q162 0 269 72q117 74 116 202v84q0 129 -116 205q-106 70 -269 70q-158 0 -264 -72q-113 -76 -112 -203v-84z" />
    <glyph glyph-name="colon" unicode=":" horiz-adv-x="471" 
d="M176 973q35 35 86 35t86 -35t35 -86t-35 -86t-86 -35t-86 35t-35 86t35 86zM176 213q35 35 86 35t86 -35t35 -84q0 -51 -35 -86t-86 -35t-86 35t-35 86q0 49 35 84z" />
    <glyph glyph-name="semicolon" unicode=";" horiz-adv-x="497" 
d="M215 219h209l-172 -506h-166zM193 942q35 35 86 35q49 0 83 -35q35 -35 35 -86q0 -49 -35 -84t-83 -35q-51 0 -86 35t-35 84q0 51 35 86z" />
    <glyph glyph-name="less" unicode="&#x3c;" horiz-adv-x="952" 
d="M870 944l-551 -321l551 -318v-188l-753 444v123l753 451v-191z" />
    <glyph glyph-name="equal" unicode="=" horiz-adv-x="1122" 
d="M156 840h864v-158h-864v158zM156 563h864v-157h-864v157z" />
    <glyph glyph-name="greater" unicode="&#x3e;" horiz-adv-x="964" 
d="M152 1135l753 -451v-123l-753 -444v188l553 318l-553 321v191z" />
    <glyph glyph-name="question" unicode="?" horiz-adv-x="956" 
d="M33 1278q104 133 258 178q145 43 293 12q154 -33 247 -135q106 -115 105 -286q-2 -377 -412 -451l-16 -332h-146l-14 471q190 0 305 84q123 88 121 230q-2 109 -74 180q-63 63 -165 84q-233 43 -373 -135zM520 186q35 -35 35 -86t-35 -84q-33 -35 -82 -34q-49 0 -84 34
q-37 33 -37 84t37 86q35 35 84 35t82 -35z" />
    <glyph glyph-name="at" unicode="@" horiz-adv-x="1550" 
d="M575 463q41 -45 107 -45q117 0 215 147q94 141 94 277q0 180 -137 180q-145 2 -238 -150q-84 -133 -84 -292q0 -72 43 -117zM1276 1135l-203 -603q-20 -63 -20 -86q0 -29 26 -28q92 0 191 143q104 152 104 307q0 203 -162 340q-158 133 -376 133q-254 0 -430 -186
q-172 -180 -173 -426q0 -254 179 -436q178 -180 428 -180q104 0 215 41l69 -127q-150 -57 -284 -58q-326 0 -545 224q-215 217 -215 536q0 315 219 535q217 219 535 219q295 0 495 -174q201 -178 201 -441q0 -246 -154 -428q-147 -178 -332 -178q-145 0 -145 133h31
q-109 -133 -266 -133q-137 0 -218 94q-72 86 -71 219q0 229 129 404q141 193 358 192q180 0 228 -161h-31l49 125h168z" />
    <glyph glyph-name="A" unicode="A" horiz-adv-x="1243" 
d="M547 1458h207l532 -1468h-176l-172 473h-576l-165 -473h-177zM879 631l-228 643l-229 -643h457z" />
    <glyph glyph-name="B" unicode="B" horiz-adv-x="1263" 
d="M721 850q268 0 268 225q0 219 -268 219h-397v-444h397zM324 684v-528h397q332 -6 332 256q0 276 -332 272h-397zM1219 410q-8 -420 -500 -420h-561v1470h563q184 0 301 -94q129 -104 129 -291q0 -231 -119 -299q187 -65 187 -366z" />
    <glyph glyph-name="C" unicode="C" horiz-adv-x="1155" 
d="M96 1018q0 188 140 311q125 111 317 137q188 27 354 -39q178 -72 262 -243l-114 -58v-90q-92 188 -217 238q-117 45 -254 29q-139 -14 -226 -86q-96 -78 -96 -199v-586q0 -121 96 -199q86 -72 226 -88q137 -14 254 31q125 47 182 166l149 -74q-82 -172 -262 -243
q-164 -68 -352 -43q-195 25 -317 133q-141 125 -142 317v586z" />
    <glyph glyph-name="D" unicode="D" horiz-adv-x="1243" 
d="M158 -10v1468h497q229 0 379 -100q178 -121 178 -338v-592q0 -217 -178 -336q-150 -102 -379 -102h-497zM324 156h331q166 0 273 65q117 72 116 207v592q0 135 -116 207q-106 66 -273 65h-331v-1136z" />
    <glyph glyph-name="E" unicode="E" horiz-adv-x="1146" 
d="M1098 1294h-774v-485h712v-168h-712v-485h774v-166h-940v1470h940v-166z" />
    <glyph glyph-name="F" unicode="F" horiz-adv-x="1095" 
d="M1096 1458v-166h-772v-526h677v-166h-677v-610h-166v1468h938z" />
    <glyph glyph-name="G" unicode="G" horiz-adv-x="1310" 
d="M88 1028q0 188 139 311q125 111 318 138q188 25 352 -41q178 -72 262 -244l-149 -74q-57 117 -181 166q-119 45 -254 29q-139 -16 -225 -88q-96 -76 -96 -197v-596q0 -137 119 -219q111 -76 272 -76q162 0 270 76q121 82 121 219v152h-436v166h602v-318q0 -219 -176 -348
q-158 -115 -381 -115q-225 0 -381 115q-176 129 -176 348v596z" />
    <glyph glyph-name="H" unicode="H" horiz-adv-x="1380" 
d="M1104 641h-782v-651h-166v1468h166v-651h782v651h166v-1468h-166v651z" />
    <glyph glyph-name="I" unicode="I" horiz-adv-x="464" 
d="M160 1458h166v-1468h-166v1468z" />
    <glyph glyph-name="J" unicode="J" horiz-adv-x="1161" 
d="M889 1292h-473v166h639v-1038q0 -203 -152 -328q-137 -113 -338 -125q-201 -14 -356 78q-172 100 -211 313l164 31q29 -141 143 -207q109 -61 248 -55q141 8 235 82q100 80 101 211v872z" />
    <glyph glyph-name="K" unicode="K" horiz-adv-x="1218" 
d="M158 1458h166v-747l761 747h222l-711 -708l702 -760h-217l-602 641l-155 -154v-487h-166v1468z" />
    <glyph glyph-name="L" unicode="L" horiz-adv-x="1001" 
d="M1036 156v-166h-876v1468h166v-1302h710z" />
    <glyph glyph-name="M" unicode="M" horiz-adv-x="1599" 
d="M895 184h-143l-435 973v-1167h-165v1468h213l458 -1038l459 1038h213v-1468h-168v1167z" />
    <glyph glyph-name="N" unicode="N" horiz-adv-x="1382" 
d="M158 1458h182l766 -1229v1229h166v-1468h-215l-733 1177v-1177h-166v1468z" />
    <glyph glyph-name="O" unicode="O" horiz-adv-x="1370" 
d="M121 1036q0 217 186 346q164 115 402 115q236 0 399 -115q186 -129 186 -346v-620q0 -219 -186 -348q-164 -113 -399 -113q-238 0 -402 113q-186 129 -186 348v620zM287 416q0 -137 129 -219q119 -76 291 -76q174 0 292 76q129 82 129 219v620q0 143 -129 224
q-117 72 -294 71q-176 -2 -291 -74q-127 -80 -127 -221v-620z" />
    <glyph glyph-name="P" unicode="P" horiz-adv-x="1236" 
d="M326 522v-532h-166v1468h559q233 0 371 -145q125 -133 124 -322q0 -190 -122 -323q-139 -145 -371 -146h-395zM719 688q160 0 250 96q80 84 80 209q0 123 -82 207q-92 94 -248 92h-393v-604h393z" />
    <glyph glyph-name="Q" unicode="Q" horiz-adv-x="1370" 
d="M1094 289q35 43 34 133v606q0 143 -127 223q-117 72 -294 72q-176 -2 -291 -74q-127 -80 -127 -221v-606q0 -207 258 -277q254 -66 424 37l-119 158l133 92zM1296 25l-139 -82l-84 108q-252 -158 -588 -59q-362 106 -362 430v606q0 219 186 346q164 115 400 115t399 -115
q186 -127 186 -346v-606q0 -166 -96 -268z" />
    <glyph glyph-name="R" unicode="R" horiz-adv-x="1251" 
d="M1241 -10h-205l-477 602h-235v-602h-166v1468h559q223 0 352 -100q143 -113 148 -336q0 -221 -150 -334q-131 -96 -348 -96h47zM719 750q332 0 332 272q0 276 -330 270h-397v-542h395z" />
    <glyph glyph-name="S" unicode="S" horiz-adv-x="1193" 
d="M397 899q59 -29 308 -78q221 -47 319 -121q150 -111 139 -333q-8 -178 -155 -289q-129 -96 -322 -111q-188 -14 -348 58q-174 80 -250 251l152 68q51 -117 172 -170q113 -49 247 -43q137 6 230 68q98 66 108 174q12 147 -110 219q-74 41 -303 90q-227 47 -322 109
q-152 100 -145 303q6 176 149 282q125 96 314 109q184 14 342 -55q172 -76 245 -246l-151 -68q-49 115 -166 166q-111 49 -244 43t-221 -65q-94 -66 -102 -173q-11 -129 114 -188z" />
    <glyph glyph-name="T" unicode="T" horiz-adv-x="1105" 
d="M20 1460h1115v-166h-473v-1304h-168v1304h-474v166z" />
    <glyph glyph-name="U" unicode="U" horiz-adv-x="1372" 
d="M152 1458h165v-1028q0 -141 121 -223q109 -78 271 -78q160 0 270 78q121 82 121 223v1028h166v-1028q0 -221 -176 -352q-156 -115 -381 -115t-381 115q-176 131 -176 352v1028z" />
    <glyph glyph-name="V" unicode="V" horiz-adv-x="1218" 
d="M743 -8h-208l-529 1468h176l459 -1284l455 1284h176z" />
    <glyph glyph-name="W" unicode="W" horiz-adv-x="1855" 
d="M1032 1272l342 -1086l357 1272h174l-426 -1468h-207l-316 991l-315 -991h-207l-426 1468h174l357 -1272l342 1086h151z" />
    <glyph glyph-name="X" unicode="X" horiz-adv-x="1181" 
d="M1229 1458l-500 -735l504 -733h-203l-399 598l-404 -598h-200l503 733l-499 735h196l404 -588l399 588h199z" />
    <glyph glyph-name="Y" unicode="Y" horiz-adv-x="1148" 
d="M1212 1458l-514 -895v-573h-166v573l-512 895h195l401 -721l400 721h196z" />
    <glyph glyph-name="Z" unicode="Z" horiz-adv-x="1132" 
d="M907 1292h-825v166h1016l53 -117l-864 -1185h841v-166h-1038l-47 119z" />
    <glyph glyph-name="bracketleft" unicode="[" horiz-adv-x="514" 
d="M500 1403h-183v-1530h183v-149h-350v1828h350v-149z" />
    <glyph glyph-name="backslash" unicode="\" horiz-adv-x="741" 
d="M791 -37l-154 -51l-627 1573l152 53z" />
    <glyph glyph-name="bracketright" unicode="]" horiz-adv-x="507" 
d="M53 -131h180v1542h-180v143h350v-1828h-350v143z" />
    <glyph glyph-name="asciicircum" unicode="^" horiz-adv-x="1214" 
d="M588 1458h117l450 -614h-201l-309 434l-295 -434h-198z" />
    <glyph glyph-name="underscore" unicode="_" horiz-adv-x="1003" 
d="M0 -25h1053v-159h-1053v159z" />
    <glyph glyph-name="grave" unicode="`" horiz-adv-x="440" 
d="M293 952h-197l168 506h170z" />
    <glyph glyph-name="a" unicode="a" horiz-adv-x="1005" 
d="M766 743q0 160 -205 189q-207 29 -317 -113l-113 107q193 211 487 155q133 -25 216 -106q94 -92 94 -232v-706q-225 -76 -451 -74q-166 2 -274 103q-113 104 -113 274q2 262 258 342q225 70 418 -18v79zM766 506q-162 63 -322 39q-193 -29 -194 -205q0 -106 67 -168
q61 -57 166 -59q176 -4 283 22v371z" />
    <glyph glyph-name="b" unicode="b" horiz-adv-x="1005" 
d="M279 1462v-415q109 49 260 49q166 2 286 -90q133 -102 133 -271v-409q0 -172 -131 -271q-115 -88 -282 -92q-201 0 -426 78v1421h160zM279 154q90 -31 266 -31q104 0 176 51q76 53 74 148v415q2 92 -76 148q-72 49 -178 51q-145 0 -262 -51v-731z" />
    <glyph glyph-name="c" unicode="c" horiz-adv-x="899" 
d="M766 799q-74 137 -252 137q-109 0 -180 -51q-78 -53 -78 -146v-407q0 -94 78 -148q72 -49 180 -49q207 0 258 170l148 -72q-49 -137 -166 -200q-106 -59 -240 -60q-168 0 -285 88q-133 102 -133 275v399q0 172 133 273q117 88 285 88q268 0 387 -211z" />
    <glyph glyph-name="d" unicode="d" horiz-adv-x="1026" 
d="M954 1462v-1421q-225 -78 -426 -78q-168 4 -282 92q-131 98 -131 271v409q0 168 133 271q119 92 287 90q152 0 258 -49v415h161zM793 885q-115 51 -261 51q-109 -2 -180 -51q-76 -55 -76 -148v-415q0 -94 76 -148q72 -51 176 -51q174 0 265 31v731z" />
    <glyph glyph-name="e" unicode="e" horiz-adv-x="989" 
d="M780 743q0 92 -78 146q-72 51 -178 51q-109 0 -182 -51q-76 -53 -76 -146v-151h514v151zM266 326q0 -96 78 -152q70 -49 180 -49q186 0 252 147l146 -73q-111 -236 -398 -236q-170 0 -286 88q-133 102 -134 275v413q0 172 134 273q117 88 286 88q166 0 285 -88
q133 -100 133 -273v-293h-676v-120z" />
    <glyph glyph-name="f" unicode="f" horiz-adv-x="526" 
d="M526 1307q-121 0 -180 -52q-59 -55 -59 -149v-209h225v-160h-225v-747h-160v1116q0 172 111 270q100 90 288 90v-159z" />
    <glyph glyph-name="g" unicode="g" horiz-adv-x="1005" 
d="M258 -121q109 -139 313 -108q205 31 205 194v58q-94 -47 -254 -48q-166 -2 -284 91q-131 102 -132 270v405q0 168 130 267q113 88 278 90q127 0 293 -47q57 -16 129 -39v-1045q0 -143 -94 -237q-84 -82 -221 -105q-293 -51 -476 150zM776 887q-123 53 -262 53
q-104 0 -174 -51q-74 -53 -74 -146v-411q0 -92 76 -146q70 -49 176 -51q143 2 258 49v703z" />
    <glyph glyph-name="h" unicode="h" horiz-adv-x="1052" 
d="M139 1458h160v-428q104 47 258 47q166 4 285 -88q133 -102 133 -270v-729h-162v731q0 92 -76 145q-72 49 -178 52q-141 0 -260 -50v-878h-160v1468z" />
    <glyph glyph-name="i" unicode="i" horiz-adv-x="432" 
d="M156 1389q35 35 82 34q47 0 79 -34q35 -33 35 -80t-35 -82q-33 -33 -79 -33q-47 0 -82 33q-33 35 -33 82t33 80zM322 1077v-1087h-160v1087h160z" />
    <glyph glyph-name="j" unicode="j" horiz-adv-x="440" 
d="M164 1389q35 35 82 34q47 0 80 -34q35 -33 34 -80q0 -47 -34 -82q-33 -33 -80 -33t-82 33q-33 35 -33 82t33 80zM-61 -236q121 0 174 56q53 53 53 149v1108h160v-1108q0 -166 -101 -266q-98 -98 -286 -98v159z" />
    <glyph glyph-name="k" unicode="k" horiz-adv-x="948" 
d="M137 1458h160v-893l514 512h209l-492 -495l480 -592h-199l-393 477l-119 -117v-360h-160v1468z" />
    <glyph glyph-name="l" unicode="l" horiz-adv-x="491" 
d="M510 -18q-184 0 -274 94t-91 260v1124h160v-1124q0 -193 205 -193v-161z" />
    <glyph glyph-name="m" unicode="m" horiz-adv-x="1650" 
d="M143 -14v989q176 98 369 98q233 0 330 -125q92 113 303 121q172 8 289 -88q125 -102 125 -283v-712h-162v708q2 111 -74 168q-66 49 -174 47q-86 -2 -154 -43q-72 -47 -71 -118v-762h-158v762q0 129 -186 161q-182 33 -275 -39v-884h-162z" />
    <glyph glyph-name="n" unicode="n" horiz-adv-x="1069" 
d="M141 -10v999q260 88 424 88q166 -2 279 -90q131 -100 131 -268v-729h-162v729q0 94 -76 149q-70 49 -172 50q-139 0 -264 -54v-874h-160z" />
    <glyph glyph-name="o" unicode="o" horiz-adv-x="1026" 
d="M350 895q-80 -55 -80 -152v-411q0 -98 80 -154q74 -49 180 -49q104 0 177 49q80 55 79 154v411q0 96 -79 152q-72 49 -177 49q-108 0 -180 -49zM111 743q0 172 133 273q117 88 286 90q168 -2 285 -90q133 -100 133 -273v-411q0 -172 -133 -275q-117 -88 -285 -90
q-170 2 -286 90q-133 102 -133 275v411z" />
    <glyph glyph-name="p" unicode="p" horiz-adv-x="1013" 
d="M121 -393v1411q225 78 426 78q166 -2 282 -88q131 -100 132 -271v-403q0 -170 -134 -273q-119 -94 -286 -92q-154 4 -260 51v-413h-160zM281 180q123 -49 262 -49q106 0 178 51q78 55 76 148v411q2 92 -74 146q-72 49 -176 49q-186 0 -266 -29v-727z" />
    <glyph glyph-name="q" unicode="q" horiz-adv-x="1013" 
d="M782 -393v413q-104 -47 -258 -51q-168 -2 -286 92q-133 102 -134 273v403q0 170 132 271q115 86 282 88q201 0 426 -78v-1411h-162zM782 907q-78 29 -264 29q-106 0 -176 -49q-76 -53 -76 -146v-411q0 -92 76 -148q72 -51 180 -51q137 0 260 49v727z" />
    <glyph glyph-name="r" unicode="r" horiz-adv-x="616" 
d="M623 1079v-164q-92 18 -164 5q-174 -41 -174 -193v-737h-160v737q0 139 92 236q84 88 217 114q68 14 189 2z" />
    <glyph glyph-name="s" unicode="s" horiz-adv-x="856" 
d="M170 303q131 -176 309 -170q209 2 207 158q0 131 -219 172q-170 29 -252 80q-129 80 -129 235q0 158 133 244q109 70 260 70q190 0 326 -127l-105 -121q-90 92 -221 92q-94 0 -157 -35q-76 -39 -76 -123q0 -76 82 -116q47 -23 168 -46q348 -66 352 -325q0 -152 -117 -238
q-98 -72 -252 -76q-276 -6 -434 248z" />
    <glyph glyph-name="t" unicode="t" horiz-adv-x="552" 
d="M553 -10q-186 -29 -301 71q-117 100 -117 281v1116h160v-381h225v-159h-225v-576q0 -100 67 -162q68 -63 191 -41v-149z" />
    <glyph glyph-name="u" unicode="u" horiz-adv-x="1038" 
d="M963 1079v-1020q-92 -31 -132 -41q-166 -47 -292 -47q-166 2 -281 90q-129 100 -129 271v747h160v-751q0 -92 76 -146q70 -51 174 -51q133 0 262 53v895h162z" />
    <glyph glyph-name="v" unicode="v" horiz-adv-x="937" 
d="M506 188l311 889h168l-381 -1087h-196l-383 1087h170z" />
    <glyph glyph-name="w" unicode="w" horiz-adv-x="1429" 
d="M748 801l-199 -811h-197l-327 1087h168l256 -854l206 854h181l208 -854l254 854h170l-327 -1087h-197z" />
    <glyph glyph-name="x" unicode="x" horiz-adv-x="905" 
d="M770 1077h195l-373 -542l373 -545h-195l-274 418l-277 -418h-194l374 545l-374 542h194l277 -420z" />
    <glyph glyph-name="y" unicode="y" horiz-adv-x="1042" 
d="M272 -119q111 -145 324 -112t213 204v50q-70 -45 -264 -50q-172 -2 -295 95q-135 104 -135 278v731h164v-737q0 -94 77 -150q74 -51 185 -51q150 0 268 51v887h162v-1104q0 -150 -97 -245q-84 -86 -225 -111q-301 -55 -493 156z" />
    <glyph glyph-name="z" unicode="z" horiz-adv-x="878" 
d="M666 922l-592 -7v162h739l86 -106l-629 -821l619 4v-164h-770l-90 104z" />
    <glyph glyph-name="braceleft" unicode="{" horiz-adv-x="575" 
d="M565 1411h-98q-39 0 -49 -27q-8 -23 -8 -108v-322q2 -141 -48 -241q-37 -74 -63 -86v26q29 -16 63 -88q49 -100 48 -239v-330q0 -76 12 -100q12 -27 55 -27h88v-143h-123q-96 0 -151 75q-49 70 -49 191v293q0 283 -142 282v146q141 0 142 284v291q0 266 200 266h123v-143
z" />
    <glyph glyph-name="bar" unicode="|" horiz-adv-x="444" 
d="M334 1552v-1919h-160v1919h160z" />
    <glyph glyph-name="braceright" unicode="}" horiz-adv-x="552" 
d="M47 1554h125q201 0 201 -266v-291q0 -285 139 -284v-146q-139 0 -139 -282v-293q0 -266 -201 -266h-125v143h88q43 0 55 27q12 25 13 100v330q0 139 47 239q37 72 63 88v-26q-27 12 -63 86q-47 100 -47 241v322q0 86 -8 108q-10 27 -50 27h-98v143z" />
    <glyph glyph-name="asciitilde" unicode="~" horiz-adv-x="1089" 
d="M1034 690q-102 -215 -280 -215q-78 0 -189 74q-98 66 -145 65q-76 0 -170 -145l-105 88q111 211 281 211q90 0 201 -72q98 -63 135 -63q74 0 172 147z" />
    <glyph glyph-name="uni00A0" unicode="&#xa0;" horiz-adv-x="569" 
 />
    <glyph glyph-name="exclamdown" unicode="&#xa1;" horiz-adv-x="557" 
d="M213 641h168v-1096h-168v1096zM383 819q-35 -35 -86 -35t-86 35t-35 86t35 86t86 35t86 -35t35 -86t-35 -86z" />
    <glyph glyph-name="cent" unicode="&#xa2;" horiz-adv-x="923" 
d="M768 791q-66 121 -190 133v-777q152 12 198 168l146 -73q-86 -238 -344 -254v-187h-140v187q-131 16 -227 102q-111 98 -111 256v381q0 156 111 254q98 88 227 100v189h140v-187q217 -12 325 -206zM438 920q-180 -25 -178 -189v-391q0 -80 59 -131q55 -49 119 -57v768z
" />
    <glyph glyph-name="sterling" unicode="&#xa3;" horiz-adv-x="970" 
d="M63 141h209v541h-209v145h209v217q0 172 90 289q113 150 338 150q156 0 308 -133l-115 -111q-88 88 -199 88q-127 0 -198 -92q-61 -78 -62 -178v-230h332v-145h-332v-541h492v-151h-863v151z" />
    <glyph glyph-name="currency" unicode="&#xa4;" horiz-adv-x="1124" 
d="M184 410q-111 121 -110 315q0 195 110 313l-114 111l100 111l119 -117q127 100 309 100q180 0 307 -100l119 117l100 -111l-114 -111q111 -119 110 -313q0 -195 -110 -315l114 -111l-100 -109l-119 115q-127 -98 -307 -98q-182 0 -309 98l-119 -115l-100 109zM338 463
q106 -106 256 -107q150 0 256 107q109 109 108 260q0 154 -108 262q-106 109 -256 109t-256 -109q-109 -109 -109 -262q0 -151 109 -260z" />
    <glyph glyph-name="yen" unicode="&#xa5;" horiz-adv-x="1056" 
d="M1157 1460l-459 -803h291l-33 -135h-311v-59h344l-31 -135h-313v-336h-166v336h-344l29 135h315v59h-338l31 135h252l-457 803h195l401 -735l400 735h194z" />
    <glyph glyph-name="brokenbar" unicode="&#xa6;" horiz-adv-x="425" 
d="M319 1454v-749h-163v749h163zM319 451v-750h-163v750h163z" />
    <glyph glyph-name="section" unicode="&#xa7;" horiz-adv-x="995" 
d="M633 383q141 78 141 178q0 96 -149 178l-144 82q-178 -59 -178 -174q0 -102 127 -168zM246 49q70 -186 264 -186q90 0 160 49q72 49 71 129q0 76 -86 135q-41 29 -204 105q-150 70 -218 131q-102 94 -102 231q0 182 184 262q-137 82 -137 250q0 160 127 256
q113 84 270 84q266 0 353 -223l-148 -82q-61 145 -211 145q-88 0 -153 -49q-68 -49 -68 -131q0 -72 82 -129q39 -29 199 -102q143 -68 209 -129q100 -92 100 -224q0 -180 -154 -264q125 -76 125 -248q0 -164 -123 -266q-113 -92 -274 -92q-309 0 -416 276z" />
    <glyph glyph-name="dieresis" unicode="&#xa8;" horiz-adv-x="565" 
d="M489 1446q106 0 107 -107q0 -106 -107 -106q-106 0 -106 106q0 107 106 107zM129 1446q106 0 107 -107q0 -106 -107 -106q-106 0 -106 106q0 107 106 107z" />
    <glyph glyph-name="copyright" unicode="&#xa9;" horiz-adv-x="1593" 
d="M285 1270q227 225 544 225q319 0 545 -225q227 -227 228 -545q0 -319 -228 -545q-225 -227 -545 -227q-317 0 -544 227q-225 225 -226 545q1 318 226 545zM403 297q176 -176 426 -176q252 0 428 176t177 428q0 250 -177 426q-176 178 -428 178q-250 0 -426 -178
q-178 -176 -178 -426q0 -252 178 -428zM1081 940q-72 137 -252 137q-106 0 -178 -49q-78 -53 -78 -147v-312q0 -92 78 -147q72 -49 178 -49q209 0 258 172l148 -74q-49 -135 -166 -201q-104 -57 -240 -57q-166 0 -282 88q-135 100 -135 272v304q0 172 135 272q117 90 282 90
q268 0 390 -211z" />
    <glyph glyph-name="ordfeminine" unicode="&#xaa;" horiz-adv-x="665" 
d="M477 1239q0 90 -141 90q-109 0 -172 -80l-105 101q119 133 285 133q117 0 199 -60q92 -70 92 -188v-479q-160 -53 -318 -49q-117 2 -194 73q-80 74 -80 195q2 242 305 242q86 0 129 -17v39zM477 1057q-59 18 -133 18q-141 0 -143 -100q0 -55 35 -88t86 -35q98 0 155 12
v193z" />
    <glyph glyph-name="guillemotleft" unicode="&#xab;" horiz-adv-x="835" 
d="M70 606l297 441l137 -84l-244 -357l244 -356l-137 -84zM360 606l297 441l138 -84l-244 -357l244 -356l-138 -84z" />
    <glyph glyph-name="logicalnot" unicode="&#xac;" horiz-adv-x="1138" 
d="M934 680h-848v160h1006v-508h-158v348z" />
    <glyph glyph-name="uni00AD" unicode="&#xad;" horiz-adv-x="667" 
d="M86 698h545v-163h-545v163z" />
    <glyph glyph-name="registered" unicode="&#xae;" horiz-adv-x="1576" 
d="M678 272h-156v910h332q319 0 320 -275q0 -244 -199 -278l262 -357h-182l-258 351h-119v-351zM678 766h117q221 0 221 141q0 63 -51 99q-45 33 -117 32h-170v-272zM272 1270q227 225 545 225q319 0 545 -225q227 -227 227 -545q0 -319 -227 -545q-225 -227 -545 -227
q-317 0 -545 227q-225 225 -225 545q0 318 225 545zM387 295q178 -178 430 -178t430 178t178 430t-178 430t-430 178t-430 -178t-178 -430t178 -430z" />
    <glyph glyph-name="macron" unicode="&#xaf;" horiz-adv-x="481" 
d="M553 1274h-578v166h578v-166z" />
    <glyph glyph-name="degree" unicode="&#xb0;" horiz-adv-x="700" 
d="M164 977q-86 86 -86 209q0 121 86 207q86 84 207 84t207 -84q86 -86 86 -207t-86 -207q-86 -88 -207 -88t-207 86zM473 1081q43 43 43 103q0 59 -43 102t-102 43t-103 -43q-41 -43 -41 -102t41 -103q43 -41 103 -41q59 0 102 41z" />
    <glyph glyph-name="plusminus" unicode="&#xb1;" horiz-adv-x="1138" 
d="M131 913h377v359h164v-359h387v-163h-387v-361h-164v361h-377v163zM139 340h912v-160h-912v160z" />
    <glyph glyph-name="uni00B2" unicode="&#xb2;" horiz-adv-x="679" 
d="M299 711h383v-152h-608l-43 105l430 407q96 88 61 170q-12 35 -49 57q-98 53 -215 9q-53 -23 -88 -95l-137 60q53 131 176 178q186 68 346 -29q78 -45 111 -129q68 -174 -101 -327z" />
    <glyph glyph-name="uni00B3" unicode="&#xb3;" horiz-adv-x="694" 
d="M711 848v-4q-4 -100 -70 -176q-100 -109 -285 -103q-219 12 -295 174l-18 39l133 66l19 -39q43 -86 172 -92q113 -8 172 65q20 27 20 70q0 61 -27 92q-45 43 -129 39h-90v129h90q55 0 99 43q23 18 22 66q0 37 -22 65q-49 55 -146 45q-98 -10 -133 -74l-18 -39l-125 70
q68 178 282 186q68 4 136 -18q72 -29 108 -70q63 -66 64 -165q0 -131 -60 -162q101 -37 101 -207z" />
    <glyph glyph-name="acute" unicode="&#xb4;" horiz-adv-x="428" 
d="M272 1458h224l-244 -307h-172z" />
    <glyph glyph-name="paragraph" unicode="&#xb6;" horiz-adv-x="1107" 
d="M500 524q-205 0 -340 146q-121 133 -119 321q4 190 131 322q143 145 383 145h479v-1720h-164v1577h-202v-1577h-168v786z" />
    <glyph glyph-name="periodcentered" unicode="&#xb7;" horiz-adv-x="569" 
d="M154 637q0 53 38.5 92t92.5 39q53 0 92 -39t39 -92q0 -49 -39 -90t-90 -41q-53 0 -93 39t-40 92z" />
    <glyph glyph-name="cedilla" unicode="&#xb8;" horiz-adv-x="454" 
d="M47 -301q25 -10 58.5 -18.5t66.5 -8.5q20 0 43 3t41 11.5t30.5 19.5t12.5 30q0 29 -27.5 46t-68.5 17q-25 0 -43.5 -4t-40.5 -12l-35 57l125 160h86l-86 -109l4 -4q20 14 68 15q66 0 119 -37t53 -113q0 -51 -23.5 -86t-60.5 -56.5t-82 -30.5t-88 -9q-49 0 -95.5 11
t-93.5 28z" />
    <glyph glyph-name="uni00B9" unicode="&#xb9;" horiz-adv-x="567" 
d="M303 1225l-94 -107l-115 90l228 260h131v-899h-150v656z" />
    <glyph glyph-name="ordmasculine" unicode="&#xba;" horiz-adv-x="729" 
d="M158 760q-106 76 -107 207v233q0 131 107 209q94 66 225 66t223 -66q106 -78 107 -209v-233q0 -131 -107 -207q-92 -68 -223 -68t-225 68zM203 967q0 -63 53 -97q51 -29 127 -28q76 0 125 28q55 33 55 97v233q0 63 -55 96q-49 31 -125 31t-127 -31q-53 -33 -53 -96v-233z
" />
    <glyph glyph-name="guillemotright" unicode="&#xbb;" horiz-adv-x="811" 
d="M813 606l-297 -440l-137 84l244 356l-244 357l137 84zM522 606l-297 -440l-137 84l244 356l-244 357l137 84z" />
    <glyph glyph-name="onequarter" unicode="&#xbc;" horiz-adv-x="1452" 
d="M1139 1536l133 -82l-942 -1542l-131 82zM268 1225l-94 -107l-115 90l228 260h131v-899h-150v656zM1372 340h70v-143h-70v-205h-149v205h-377l-84 120l469 576h141v-553zM1223 340l6 330l-264 -330h258z" />
    <glyph glyph-name="onehalf" unicode="&#xbd;" horiz-adv-x="1552" 
d="M1110 1536l133 -82l-942 -1542l-131 82zM281 1225l-95 -107l-114 90l227 260h131v-899h-149v656zM1155 135h383v-151h-608l-43 104l430 408q96 88 61 170q-12 33 -49 55q-98 55 -215 10q-53 -23 -88 -94l-137 59q53 129 176 176q186 70 346 -26q78 -45 111 -129
q68 -174 -101 -330z" />
    <glyph glyph-name="threequarters" unicode="&#xbe;" horiz-adv-x="1525" 
d="M1274 1536l133 -82l-942 -1542l-131 82zM602 1055q100 -37 100 -207q0 -137 -116 -217q-100 -70 -238 -66q-219 12 -295 174l-18 39l133 66l18 -39q43 -86 172 -92q72 -4 131 30q61 37 62 105q0 61 -27 92q-45 43 -129 39h-90v129h90q55 0 99 43q23 18 22 66q0 37 -22 65
q-49 55 -146 45q-98 -10 -133 -74l-18 -39l-125 70q68 178 282 186q68 4 135 -18q72 -29 109 -70q63 -66 64 -165q-1 -131 -60 -162zM1509 340v-143h-67v-205h-150v205h-377l-84 120l469 576h142v-553h67zM1298 670l-264 -330h258z" />
    <glyph glyph-name="questiondown" unicode="&#xbf;" horiz-adv-x="958" 
d="M965 -221q-104 -131 -258 -178q-145 -43 -293 -11q-154 33 -248 136q-106 115 -105 284q2 379 412 451l14 344h146l14 -481q-190 -2 -305 -86q-121 -88 -119 -230q4 -219 240 -262q233 -45 373 133zM475 901q-33 35 -33 84t33 82q33 35 82 35t84 -33q35 -35 35 -84
t-35 -84t-84 -35t-82 35z" />
    <glyph glyph-name="Agrave" unicode="&#xc0;" horiz-adv-x="1243" 
d="M547 1458h207l532 -1468h-176l-172 473h-576l-165 -473h-177zM879 631l-228 643l-229 -643h457zM770 1495h-172l-244 309h224z" />
    <glyph glyph-name="Aacute" unicode="&#xc1;" horiz-adv-x="1243" 
d="M737 1796h224l-244 -309h-172zM547 1458h207l532 -1468h-176l-172 473h-576l-165 -473h-177zM879 631l-228 643l-229 -643h457z" />
    <glyph glyph-name="Acircumflex" unicode="&#xc2;" horiz-adv-x="1243" 
d="M547 1458h207l532 -1468h-176l-172 473h-576l-165 -473h-177zM879 631l-228 643l-229 -643h457zM573 1751h162l260 -289h-196l-148 154l-139 -154h-199z" />
    <glyph glyph-name="Atilde" unicode="&#xc3;" horiz-adv-x="1243" 
d="M547 1458h207l532 -1468h-176l-172 473h-576l-165 -473h-177zM879 631l-228 643l-229 -643h457zM385 1534q25 125 119 160q88 31 180 -21q39 -25 72 -22q35 2 59 55l113 -43q-25 -125 -117 -154q-82 -23 -170 21q-115 59 -145 -35z" />
    <glyph glyph-name="Adieresis" unicode="&#xc4;" horiz-adv-x="1243" 
d="M547 1458h207l532 -1468h-176l-172 473h-576l-165 -473h-177zM879 631l-228 643l-229 -643h457zM836 1704q106 0 106 -107q0 -106 -106 -106t-107 106q1 107 107 107zM475 1704q104 0 105 -107q0 -106 -105 -106q-106 0 -106 106q0 107 106 107z" />
    <glyph glyph-name="Aring" unicode="&#xc5;" horiz-adv-x="1243" 
d="M506 1825q63 63 151 63q86 0 150 -65q59 -66 59 -152q0 -84 -61 -147q-61 -66 -148 -66q-88 0 -151 66q-61 63 -62 149q1 89 62 152zM707 1729q-20 25 -52 24q-31 0 -53 -24q-23 -23 -22 -58q0 -31 22 -53q23 -23 53 -23q31 0 52 23q23 23 22 55q1 33 -22 56zM547 1458
h207l532 -1468h-176l-172 473h-576l-165 -473h-177zM879 631l-228 643l-229 -643h457z" />
    <glyph glyph-name="AE" unicode="&#xc6;" horiz-adv-x="1634" 
d="M768 1458h844v-166h-606v-485h542v-166h-542v-485h606v-166h-774v473h-392l-235 -473h-193zM530 631h308v608z" />
    <glyph glyph-name="Ccedilla" unicode="&#xc7;" horiz-adv-x="1155" 
d="M96 1018q0 188 140 311q125 111 317 137q188 27 354 -39q178 -72 262 -243l-114 -58v-90q-92 188 -217 238q-117 45 -254 29q-139 -14 -226 -86q-96 -78 -96 -199v-586q0 -121 96 -199q86 -72 226 -88q137 -14 254 31q125 47 182 166l149 -74q-74 -154 -223 -227
q-139 -68 -293 -66l-35 -51l-20 23q61 29 137 -25q76 -53 72 -137q-4 -90 -76 -139q-61 -39 -143 -39q-76 0 -189 53l45 117q76 -39 140 -39q78 0 78 47q0 35 -48 43q-51 10 -106 -16l-51 51l73 121q-162 14 -290 125q-143 125 -144 323v586z" />
    <glyph glyph-name="Egrave" unicode="&#xc8;" horiz-adv-x="1146" 
d="M1098 1294h-774v-485h712v-168h-712v-485h774v-166h-940v1470h940v-166zM774 1491h-170l-246 309h224z" />
    <glyph glyph-name="Eacute" unicode="&#xc9;" horiz-adv-x="1146" 
d="M707 1796h223l-244 -309h-172zM1098 1294h-774v-485h712v-168h-712v-485h774v-166h-940v1470h940v-166z" />
    <glyph glyph-name="Ecircumflex" unicode="&#xca;" horiz-adv-x="1146" 
d="M1098 1294h-774v-485h712v-168h-712v-485h774v-166h-940v1470h940v-166zM559 1774h162l260 -287h-197l-147 153l-139 -153h-199z" />
    <glyph glyph-name="Edieresis" unicode="&#xcb;" horiz-adv-x="1146" 
d="M1098 1294h-774v-485h712v-168h-712v-485h774v-166h-940v1470h940v-166zM829 1714q106 0 107 -106q0 -106 -107 -107q-106 0 -106 107q0 106 106 106zM469 1714q106 0 106 -106t-106 -107q-106 0 -107 107q1 106 107 106z" />
    <glyph glyph-name="Igrave" unicode="&#xcc;" horiz-adv-x="464" 
d="M186 1458h166v-1468h-166v1468zM379 1501h-170l-246 309h223z" />
    <glyph glyph-name="Iacute" unicode="&#xcd;" horiz-adv-x="464" 
d="M178 1458h168v-1468h-168v1468zM352 1806h223l-243 -309h-172z" />
    <glyph glyph-name="Icircumflex" unicode="&#xce;" horiz-adv-x="466" 
d="M193 1458h165v-1468h-165v1468zM203 1763h162l260 -280h-197l-149 147l-138 -147h-200z" />
    <glyph glyph-name="Idieresis" unicode="&#xcf;" horiz-adv-x="464" 
d="M160 1458h166v-1468h-166v1468zM426 1708q106 0 106 -106t-106 -107q-106 0 -107 107q1 106 107 106zM66 1708q106 0 106 -106t-106 -107q-106 0 -107 107q1 106 107 106z" />
    <glyph glyph-name="Eth" unicode="&#xd0;" horiz-adv-x="1230" 
d="M18 793h127v665h498q227 0 379 -100q176 -121 176 -338v-592q0 -217 -176 -336q-152 -102 -379 -102h-498v649h-127v154zM643 156q166 0 270 65q119 72 119 207v592q0 135 -119 207q-104 66 -270 65h-332v-499h252v-154h-252v-483h332z" />
    <glyph glyph-name="Ntilde" unicode="&#xd1;" horiz-adv-x="1382" 
d="M158 1458h182l766 -1229v1229h166v-1468h-215l-733 1177v-1177h-166v1468zM463 1528q27 127 119 160q88 31 182 -21q39 -25 72 -22q35 2 57 55l113 -43q-23 -125 -117 -154q-80 -23 -168 21q-115 59 -148 -35z" />
    <glyph glyph-name="Ograve" unicode="&#xd2;" horiz-adv-x="1370" 
d="M121 1036q0 217 186 346q164 115 402 115q236 0 399 -115q186 -129 186 -346v-620q0 -219 -186 -348q-164 -113 -399 -113q-238 0 -402 113q-186 129 -186 348v620zM287 416q0 -137 129 -219q119 -76 291 -76q174 0 292 76q129 82 129 219v620q0 143 -129 224
q-117 72 -294 71q-176 -2 -291 -74q-127 -80 -127 -221v-620zM829 1503h-172l-245 309h225z" />
    <glyph glyph-name="Oacute" unicode="&#xd3;" horiz-adv-x="1370" 
d="M121 1036q0 217 186 346q164 115 402 115q236 0 399 -115q186 -129 186 -346v-620q0 -219 -186 -348q-164 -113 -399 -113q-238 0 -402 113q-186 129 -186 348v620zM287 416q0 -137 129 -219q119 -76 291 -76q174 0 292 76q129 82 129 219v620q0 143 -129 224
q-117 72 -294 71q-176 -2 -291 -74q-127 -80 -127 -221v-620zM805 1815h223l-246 -310h-172z" />
    <glyph glyph-name="Ocircumflex" unicode="&#xd4;" horiz-adv-x="1370" 
d="M121 1036q0 217 186 346q164 115 402 115q236 0 399 -115q186 -129 186 -346v-620q0 -219 -186 -348q-164 -113 -399 -113q-238 0 -402 113q-186 129 -186 348v620zM287 416q0 -137 129 -219q119 -76 291 -76q174 0 292 76q129 82 129 219v620q0 143 -129 224
q-117 72 -294 71q-176 -2 -291 -74q-127 -80 -127 -221v-620zM631 1784h162l260 -287h-197l-149 154l-138 -154h-200z" />
    <glyph glyph-name="Otilde" unicode="&#xd5;" horiz-adv-x="1370" 
d="M121 1036q0 217 186 346q164 115 402 115q236 0 399 -115q186 -129 186 -346v-620q0 -219 -186 -348q-164 -113 -399 -113q-238 0 -402 113q-186 129 -186 348v620zM287 416q0 -137 129 -219q119 -76 291 -76q174 0 292 76q129 82 129 219v620q0 143 -129 224
q-117 72 -294 71q-176 -2 -291 -74q-127 -80 -127 -221v-620zM432 1546q27 125 119 160q88 31 182 -20q39 -25 72 -23q35 2 57 55l113 -43q-23 -125 -117 -153q-80 -25 -168 20q-117 59 -147 -35z" />
    <glyph glyph-name="Odieresis" unicode="&#xd6;" horiz-adv-x="1370" 
d="M121 1036q0 217 186 346q164 115 402 115q236 0 399 -115q186 -129 186 -346v-620q0 -219 -186 -348q-164 -113 -399 -113q-238 0 -402 113q-186 129 -186 348v620zM287 416q0 -137 129 -219q119 -76 291 -76q174 0 292 76q129 82 129 219v620q0 143 -129 224
q-117 72 -294 71q-176 -2 -291 -74q-127 -80 -127 -221v-620zM897 1706q106 0 107 -107q0 -106 -107 -106q-106 0 -106 106q0 107 106 107zM537 1706q106 0 106 -107q0 -106 -106 -106t-107 106q1 107 107 107z" />
    <glyph glyph-name="multiply" unicode="&#xd7;" horiz-adv-x="958" 
d="M195 1063l329 -330l322 324l112 -117l-319 -317l315 -316l-114 -117l-316 318l-325 -326l-113 117l322 322l-328 329z" />
    <glyph glyph-name="Oslash" unicode="&#xd8;" horiz-adv-x="1370" 
d="M121 1036q0 279 285 400q256 111 514 32l57 142l149 -51l-59 -150q227 -119 227 -373v-620q0 -276 -282 -402q-254 -111 -512 -32l-58 -150l-151 51l61 158q-231 117 -231 375v620zM287 416q0 -150 127 -221l444 1120q-59 16 -153 16q-176 -2 -291 -74
q-127 -80 -127 -221v-620zM1128 1036q0 152 -122 219l-443 -1118q178 -51 367 23q197 80 198 256v620z" />
    <glyph glyph-name="Ugrave" unicode="&#xd9;" horiz-adv-x="1372" 
d="M152 1458h165v-1028q0 -141 121 -223q109 -78 271 -78q160 0 270 78q121 82 121 223v1028h166v-1028q0 -221 -176 -352q-156 -115 -381 -115t-381 115q-176 131 -176 352v1028zM831 1487h-172l-243 309h223z" />
    <glyph glyph-name="Uacute" unicode="&#xda;" horiz-adv-x="1372" 
d="M152 1458h165v-1028q0 -141 121 -223q109 -78 271 -78q160 0 270 78q121 82 121 223v1028h166v-1028q0 -221 -176 -352q-156 -115 -381 -115t-381 115q-176 131 -176 352v1028zM748 1792h225l-246 -309h-172z" />
    <glyph glyph-name="Ucircumflex" unicode="&#xdb;" horiz-adv-x="1372" 
d="M637 1786h162l260 -287h-197l-147 154l-140 -154h-198zM152 1458h165v-1028q0 -141 121 -223q109 -78 271 -78q160 0 270 78q121 82 121 223v1028h166v-1028q0 -221 -176 -352q-156 -115 -381 -115t-381 115q-176 131 -176 352v1028z" />
    <glyph glyph-name="Udieresis" unicode="&#xdc;" horiz-adv-x="1372" 
d="M152 1458h165v-1028q0 -145 121 -229q109 -78 271 -78q160 0 270 78q121 84 121 229v1028h166v-1028q0 -221 -176 -352q-156 -115 -381 -115t-381 115q-176 131 -176 352v1028zM893 1718q106 0 106 -106t-106 -107q-106 0 -107 107q1 106 107 106zM530 1718
q106 0 107 -106q0 -106 -107 -107q-106 0 -106 107q0 106 106 106z" />
    <glyph glyph-name="Yacute" unicode="&#xdd;" horiz-adv-x="1099" 
d="M1188 1458l-514 -895v-573h-166v573l-512 895h194l402 -721l399 721h197zM674 1790h223l-244 -309h-172z" />
    <glyph glyph-name="Thorn" unicode="&#xde;" horiz-adv-x="1101" 
d="M324 1198q61 8 165 8q279 0 431 -116q152 -121 151 -342q0 -244 -194 -363q-158 -94 -412 -94h-78l14 164h58q444 0 444 293t-422 292q-98 0 -157 -10v-1038h-168v1481h168v-275z" />
    <glyph glyph-name="germandbls" unicode="&#xdf;" horiz-adv-x="1206" 
d="M879 225q119 76 118 213q0 141 -94 213q-88 68 -239 66h-209v160h209q117 0 190 63q78 66 78 184q0 117 -94 179q-82 53 -213 53q-127 0 -211 -60q-96 -66 -97 -184v-1124h-163v1124q0 188 149 303q133 102 322 103q190 0 323 -97q152 -109 152 -297q0 -242 -131 -315
q197 -70 196 -375q-4 -215 -178 -340q-154 -111 -375 -106q-133 4 -239 57l2 180q129 -66 237 -69q161 -3 267 69z" />
    <glyph glyph-name="agrave" unicode="&#xe0;" horiz-adv-x="1013" 
d="M766 743q0 160 -205 189q-207 29 -317 -113l-113 107q193 211 487 155q133 -25 216 -106q94 -92 94 -232v-706q-225 -76 -451 -74q-166 2 -274 103q-113 104 -113 274q2 262 258 342q225 70 418 -18v79zM766 506q-162 63 -322 39q-193 -29 -194 -205q0 -106 67 -168
q61 -57 166 -59q176 -4 283 22v371zM647 1092h-155l-226 278h211z" />
    <glyph glyph-name="aacute" unicode="&#xe1;" horiz-adv-x="1013" 
d="M553 1370h209l-225 -278h-154zM766 743q0 160 -205 189q-207 29 -317 -113l-113 107q193 211 487 155q133 -25 216 -106q94 -92 94 -232v-706q-225 -76 -451 -74q-166 2 -274 103q-113 104 -113 274q2 262 258 342q225 70 418 -18v79zM766 506q-162 63 -322 39
q-193 -29 -194 -205q0 -106 67 -168q61 -57 166 -59q176 -4 283 22v371z" />
    <glyph glyph-name="acircumflex" unicode="&#xe2;" horiz-adv-x="1013" 
d="M766 743q0 160 -205 189q-207 29 -317 -113l-113 107q193 211 487 155q133 -25 216 -106q94 -92 94 -232v-706q-225 -76 -451 -74q-166 2 -274 103q-113 104 -113 274q2 262 258 342q225 70 418 -18v79zM766 506q-162 63 -322 39q-193 -29 -194 -205q0 -106 67 -168
q61 -57 166 -59q176 -4 283 22v371zM446 1354h148l240 -262h-185l-131 137l-125 -137h-184z" />
    <glyph glyph-name="atilde" unicode="&#xe3;" horiz-adv-x="1013" 
d="M766 743q0 160 -205 189q-207 29 -317 -113l-113 107q193 211 487 155q133 -25 216 -106q94 -92 94 -232v-706q-225 -76 -451 -74q-166 2 -274 103q-113 104 -113 274q2 262 258 342q225 70 418 -18v79zM766 506q-162 63 -322 39q-193 -29 -194 -205q0 -106 67 -168
q61 -57 166 -59q176 -4 283 22v371zM262 1161q23 125 107 158q82 33 166 -21q33 -23 61 -20q29 2 51 57l105 -47q-23 -123 -107 -151q-74 -25 -153 20q-98 57 -127 -37z" />
    <glyph glyph-name="adieresis" unicode="&#xe4;" horiz-adv-x="1013" 
d="M766 743q0 160 -205 189q-207 29 -317 -113l-113 107q193 211 487 155q133 -25 216 -106q94 -92 94 -232v-706q-225 -76 -451 -74q-166 2 -274 103q-113 104 -113 274q2 262 258 342q225 70 418 -18v79zM766 506q-162 63 -322 39q-193 -29 -194 -205q0 -106 67 -168
q61 -57 166 -59q176 -4 283 22v371zM690 1288q98 0 98 -98t-98 -98t-98 98t98 98zM365 1288q98 0 98 -98t-98 -98t-99 98q1 98 99 98z" />
    <glyph glyph-name="aring" unicode="&#xe5;" horiz-adv-x="1013" 
d="M766 743q0 160 -205 189q-207 29 -317 -113l-113 107q193 211 487 155q133 -25 216 -106q94 -92 94 -232v-706q-225 -76 -451 -74q-166 2 -274 103q-113 104 -113 274q2 262 258 342q225 70 418 -18v79zM766 506q-162 63 -322 39q-193 -29 -194 -205q0 -106 67 -168
q61 -57 166 -59q176 -4 283 22v371zM399 1397q55 53 131 53q74 0 129 -55q53 -53 54 -127q0 -70 -56 -123q-53 -53 -127 -53q-76 0 -131 53t-55 125q0 74 55 127zM528 1329q-59 0 -59 -61q0 -55 59 -56q59 0 60 58q-1 59 -60 59z" />
    <glyph glyph-name="ae" unicode="&#xe6;" horiz-adv-x="1638" 
d="M756 748q0 160 -205 188q-205 29 -315 -113l-113 107q152 168 387 166q240 -2 332 -131q94 129 332 129q168 0 284 -88q133 -100 133 -273v-282h-673v-125q0 -94 75 -148q74 -49 181 -49q190 0 253 147l144 -73q-109 -236 -397 -236q-213 0 -316 113q-182 -156 -465 -103
q-311 59 -311 359q0 262 258 344q225 74 416 -14v82zM918 596h514v141q0 92 -78 146q-72 51 -180 51q-106 0 -179 -49q-78 -51 -77 -144v-145zM756 508q-160 61 -320 35q-193 -31 -194 -207q2 -182 207 -207q199 -25 327 76q-20 49 -20 125v178z" />
    <glyph glyph-name="ccedilla" unicode="&#xe7;" horiz-adv-x="886" 
d="M518 -86l-20 23q61 29 135 -21q74 -49 69 -137q-4 -90 -73 -137q-57 -37 -142 -37q-84 0 -188 49l41 113q76 -39 143 -39q86 0 86 51q0 35 -49 43q-53 10 -108 -17l-52 54l78 121q-119 6 -223 94q-119 98 -119 262v399q0 172 133 273q117 88 285 88q268 0 387 -211
l-135 -86q-74 137 -252 137q-109 0 -180 -51q-78 -53 -78 -146v-407q0 -94 78 -148q72 -49 180 -49q207 0 258 170l148 -72q-88 -242 -363 -256z" />
    <glyph glyph-name="egrave" unicode="&#xe8;" horiz-adv-x="989" 
d="M647 1098h-155l-226 272h211zM780 743q0 92 -78 146q-72 51 -178 51q-109 0 -182 -51q-76 -53 -76 -146v-151h514v151zM266 326q0 -96 78 -152q70 -49 180 -49q186 0 252 147l146 -73q-111 -236 -398 -236q-170 0 -286 88q-133 102 -134 275v413q0 172 134 273
q117 88 286 88q166 0 285 -88q133 -100 133 -273v-293h-676v-120z" />
    <glyph glyph-name="eacute" unicode="&#xe9;" horiz-adv-x="989" 
d="M565 1370h211l-227 -272h-156zM780 743q0 92 -78 146q-72 51 -178 51q-109 0 -182 -51q-76 -53 -76 -146v-151h514v151zM266 326q0 -96 78 -152q70 -49 180 -49q186 0 252 147l146 -73q-111 -236 -398 -236q-170 0 -286 88q-133 102 -134 275v413q0 172 134 273
q117 88 286 88q166 0 285 -88q133 -100 133 -273v-293h-676v-120z" />
    <glyph glyph-name="ecircumflex" unicode="&#xea;" horiz-adv-x="989" 
d="M444 1350h148l239 -265h-184l-131 138l-125 -138h-184zM780 743q0 92 -78 146q-72 51 -178 51q-109 0 -182 -51q-76 -53 -76 -146v-151h514v151zM266 326q0 -96 78 -152q70 -49 180 -49q186 0 252 147l146 -73q-111 -236 -398 -236q-170 0 -286 88q-133 102 -134 275v413
q0 172 134 273q117 88 286 88q166 0 285 -88q133 -100 133 -273v-293h-676v-120z" />
    <glyph glyph-name="edieresis" unicode="&#xeb;" horiz-adv-x="989" 
d="M780 743q0 92 -78 146q-72 51 -178 51q-109 0 -182 -51q-76 -53 -76 -146v-151h514v151zM266 326q0 -96 78 -152q70 -49 180 -49q186 0 252 147l146 -73q-111 -236 -398 -236q-170 0 -286 88q-133 102 -134 275v413q0 172 134 273q117 88 286 88q166 0 285 -88
q133 -100 133 -273v-293h-676v-120zM686 1294q98 0 98 -98t-98 -98t-98 98t98 98zM358 1294q98 0 99 -98q0 -98 -99 -98q-98 0 -98 98t98 98z" />
    <glyph glyph-name="igrave" unicode="&#xec;" horiz-adv-x="454" 
d="M141 0v1059h174v-1059h-174zM-47 1497h223l176 -293h-131z" />
    <glyph glyph-name="iacute" unicode="&#xed;" horiz-adv-x="454" 
d="M141 0v1059h174v-1059h-174zM279 1497h223l-269 -293h-131z" />
    <glyph glyph-name="icircumflex" unicode="&#xee;" horiz-adv-x="454" 
d="M141 0v1059h174v-1059h-174zM131 1497h191l213 -293h-173l-141 197l-143 -197h-158z" />
    <glyph glyph-name="idieresis" unicode="&#xef;" horiz-adv-x="454" 
d="M141 0v1059h174v-1059h-174zM328 1425h184v-213h-184v213zM-57 1425h184v-213h-184v213z" />
    <glyph glyph-name="eth" unicode="&#xf0;" horiz-adv-x="1175" 
d="M557 1036q82 0 155.5 -25.5t129.5 -88.5h4q-25 51 -57.5 100t-67.5 90t-67.5 71.5t-57.5 47.5l-236 -111l-77 82l223 105q-33 29 -74 55.5t-70 42.5l144 92q29 -20 73 -51t85 -64l245 115l72 -76l-236 -108q186 -154 271.5 -351.5t85.5 -433.5q0 -117 -33 -217
t-98.5 -175t-161.5 -118t-221 -43q-127 0 -222.5 43t-161 118t-98 175.5t-32.5 216.5q0 100 31.5 191.5t93 162t151.5 112.5t207 42zM578 883q-158 0 -239 -98.5t-81 -256.5q0 -96 25.5 -170.5t70.5 -125t105.5 -77t128.5 -26.5t128 26.5t105 77t71 125t26 170.5
q0 70 -19.5 134.5t-60.5 113.5t-105.5 78t-154.5 29z" />
    <glyph glyph-name="ntilde" unicode="&#xf1;" horiz-adv-x="1069" 
d="M141 989q260 88 424 88q166 -2 279 -90q131 -100 131 -268v-729h-162v729q0 94 -76 149q-70 49 -172 50q-139 0 -264 -54v-874h-160v999zM328 1135q20 123 100 153q78 33 158 -20q72 -47 104 37l101 -48q-20 -119 -101 -147q-70 -25 -145 20q-92 53 -117 -36z" />
    <glyph glyph-name="ograve" unicode="&#xf2;" horiz-adv-x="1009" 
d="M530 944q-109 0 -180 -49q-80 -55 -80 -152v-411q0 -98 80 -154q74 -49 180 -49q104 0 177 49q80 55 79 154v411q0 96 -79 152q-73 49 -177 49zM111 743q0 172 133 273q117 88 286 90q168 -2 285 -90q133 -100 133 -273v-411q0 -172 -133 -275q-117 -88 -285 -90
q-170 2 -286 90q-133 102 -133 275v411zM645 1108h-170l-205 268h224z" />
    <glyph glyph-name="oacute" unicode="&#xf3;" horiz-adv-x="1009" 
d="M561 1382h223l-206 -268h-170zM350 895q-80 -55 -80 -152v-411q0 -98 80 -154q74 -49 180 -49q104 0 177 49q80 55 79 154v411q0 96 -79 152q-72 49 -177 49q-108 0 -180 -49zM111 743q0 172 133 273q117 88 286 90q168 -2 285 -90q133 -100 133 -273v-411
q0 -172 -133 -275q-117 -88 -285 -90q-170 2 -286 90q-133 102 -133 275v411z" />
    <glyph glyph-name="ocircumflex" unicode="&#xf4;" horiz-adv-x="1009" 
d="M530 944q-109 0 -180 -49q-80 -55 -80 -152v-411q0 -98 80 -154q74 -49 180 -49q104 0 177 49q80 55 79 154v411q0 96 -79 152q-73 49 -177 49zM111 743q0 172 133 273q117 88 286 90q168 -2 285 -90q133 -100 133 -273v-411q0 -172 -133 -275q-117 -88 -285 -90
q-170 2 -286 90q-133 102 -133 275v411zM465 1354h141l230 -252h-177l-127 121l-116 -121h-180z" />
    <glyph glyph-name="otilde" unicode="&#xf5;" horiz-adv-x="1009" 
d="M530 944q-109 0 -180 -49q-80 -55 -80 -152v-411q0 -98 80 -154q74 -49 180 -49q104 0 177 49q80 55 79 154v411q0 96 -79 152q-73 49 -177 49zM111 743q0 172 133 273q117 88 286 90q168 -2 285 -90q133 -100 133 -273v-411q0 -172 -133 -275q-117 -88 -285 -90
q-170 2 -286 90q-133 102 -133 275v411zM295 1151q23 125 104 158q78 33 160 -21q33 -23 59 -20q27 2 48 57l102 -47q-20 -123 -100 -152q-72 -25 -150 21q-94 55 -121 -37z" />
    <glyph glyph-name="odieresis" unicode="&#xf6;" horiz-adv-x="1009" 
d="M692 1298q98 0 99 -96q0 -98 -99 -98q-96 0 -96 98q0 96 96 96zM371 1298q98 0 98 -96q0 -98 -98 -98q-96 0 -97 98q1 96 97 96zM530 944q-109 0 -180 -49q-80 -55 -80 -152v-411q0 -98 80 -154q74 -49 180 -49q104 0 177 49q80 55 79 154v411q0 96 -79 152
q-73 49 -177 49zM111 743q0 172 133 273q117 88 286 90q168 -2 285 -90q133 -100 133 -273v-411q0 -172 -133 -275q-117 -88 -285 -90q-170 2 -286 90q-133 102 -133 275v411z" />
    <glyph glyph-name="divide" unicode="&#xf7;" horiz-adv-x="1058" 
d="M92 762h920v-168h-920v168zM473 1065q37 37 88 37q53 0 90 -37t37 -90q0 -51 -37 -88t-90 -37q-51 0 -88 37t-37 88q0 53 37 90zM473 446q35 35 88 37q53 0 90 -37t37 -90q0 -51 -37 -88t-90 -37q-51 0 -88 37t-37 88q0 53 37 90z" />
    <glyph glyph-name="oslash" unicode="&#xf8;" horiz-adv-x="1009" 
d="M111 743q0 172 133 273q117 88 286 90q88 -4 140 -21l61 154l141 -53l-67 -164q143 -90 143 -279v-411q0 -172 -133 -275q-117 -88 -285 -90q-96 4 -149 21l-57 -138l-131 54l59 147q-141 88 -141 281v411zM707 178q80 55 79 154v411q0 90 -45 123l-299 -729q29 -8 88 -8
q105 0 177 49zM350 895q-80 -55 -80 -152v-411q0 -90 43 -125l295 729q-29 8 -78 8q-108 0 -180 -49z" />
    <glyph glyph-name="ugrave" unicode="&#xf9;" horiz-adv-x="1038" 
d="M676 1087h-166l-207 254h217zM963 59q-92 -31 -132 -41q-166 -47 -292 -47q-166 2 -281 90q-129 100 -129 271v745h160v-749q0 -92 76 -146q70 -51 174 -51q133 0 262 53v893h162v-1018z" />
    <glyph glyph-name="uacute" unicode="&#xfa;" horiz-adv-x="1038" 
d="M559 1341h217l-207 -254h-166zM963 59q-92 -31 -132 -41q-166 -47 -292 -47q-166 2 -281 90q-129 100 -129 271v745h160v-749q0 -92 76 -146q70 -51 174 -51q133 0 262 53v893h162v-1018z" />
    <glyph glyph-name="ucircumflex" unicode="&#xfb;" horiz-adv-x="1038" 
d="M963 59q-92 -31 -132 -41q-166 -47 -292 -47q-166 2 -281 90q-129 100 -129 271v745h160v-749q0 -92 76 -146q70 -51 174 -51q133 0 262 53v893h162v-1018zM479 1346h144l235 -254h-180l-129 129l-121 -129h-182z" />
    <glyph glyph-name="udieresis" unicode="&#xfc;" horiz-adv-x="1038" 
d="M963 59q-92 -31 -132 -41q-166 -47 -292 -47q-166 2 -281 90q-129 100 -129 271v747h160v-751q0 -92 76 -146q70 -51 174 -51q133 0 262 53v895h162v-1020zM713 1296q98 0 98 -96q0 -98 -98 -98q-96 0 -97 98q1 96 97 96zM393 1296q96 0 96 -96q0 -98 -96 -98t-96 98
q0 96 96 96z" />
    <glyph glyph-name="yacute" unicode="&#xfd;" horiz-adv-x="1042" 
d="M272 -119q111 -145 324 -112t213 204v50q-70 -45 -264 -50q-172 -2 -295 95q-135 104 -135 278v731h164v-737q0 -94 77 -150q74 -51 185 -51q150 0 268 51v887h162v-1104q0 -150 -97 -245q-84 -86 -225 -111q-301 -55 -493 156zM586 1343h223l-209 -260h-170z" />
    <glyph glyph-name="thorn" unicode="&#xfe;" horiz-adv-x="1046" 
d="M139 -403v1859h160v-409q115 29 266 28q166 -2 283 -88q131 -100 131 -270v-385q0 -168 -133 -273q-121 -94 -287 -92q-154 4 -260 51v-421h-160zM299 180q119 -49 264 -49q106 0 176 51q78 53 76 146v393q2 92 -74 145q-70 49 -176 49q-184 0 -266 -26v-709z" />
    <glyph glyph-name="ydieresis" unicode="&#xff;" horiz-adv-x="1042" 
d="M272 -119q111 -145 324 -112t213 204v50q-70 -45 -264 -50q-172 -2 -295 95q-135 104 -135 278v731h164v-737q0 -94 77 -150q74 -51 185 -51q150 0 268 51v887h162v-1104q0 -150 -97 -245q-84 -86 -225 -111q-301 -55 -493 156zM707 1323q96 0 96 -96q0 -94 -94 -94
q-96 0 -97 94q1 96 95 96zM393 1323q94 0 94 -96q0 -94 -94 -94q-96 0 -96 94q0 96 96 96z" />
    <glyph glyph-name="dotlessi" unicode="&#x131;" horiz-adv-x="442" 
d="M158 1001h168v-1011h-168v1011z" />
    <glyph glyph-name="Lslash" unicode="&#x141;" horiz-adv-x="999" 
d="M180 426l-55 -45l-90 123l145 125v829h168v-678l180 154l80 -135l-260 -217v-424h674v-168h-842v436z" />
    <glyph glyph-name="lslash" unicode="&#x142;" horiz-adv-x="514" 
d="M541 -18q-186 0 -277 94q-88 94 -88 260v311l-94 -65l-64 131l158 110v650h160v-535l86 63l70 -124l-156 -113v-428q0 -193 205 -193v-161z" />
    <glyph glyph-name="OE" unicode="&#x152;" horiz-adv-x="1925" 
d="M1892 1456v-166h-770v-485h709v-166h-709v-485h770v-166h-936v18q-82 -45 -266 -41q-231 4 -391 117q-180 129 -180 344v594q0 217 184 344q164 113 397 115q186 0 256 -45v22h936zM956 1266q-98 49 -254 47q-174 0 -290 -72q-127 -80 -127 -221v-594q0 -201 245 -270
q240 -70 426 28v1082z" />
    <glyph glyph-name="oe" unicode="&#x153;" horiz-adv-x="1667" 
d="M1456 741q0 92 -78 148q-74 51 -180 51t-178 -51q-78 -53 -78 -152v-133h514v137zM350 887q-80 -53 -80 -150v-401q0 -98 80 -152q70 -47 176 -47q104 0 176 49q78 53 78 150v403q0 94 -78 148q-72 49 -176 49q-106 0 -176 -49zM111 737q0 170 133 271q115 88 282 88
q264 0 332 -148q49 147 340 152q168 -2 285 -90q133 -100 133 -271v-282h-674v-121q0 -98 80 -152q72 -49 176 -49q188 0 254 146l143 -72q-106 -231 -397 -236q-264 0 -336 152q-70 -145 -336 -150q-168 2 -282 91q-133 98 -133 270v401z" />
    <glyph glyph-name="Scaron" unicode="&#x160;" horiz-adv-x="1193" 
d="M397 899q59 -29 308 -78q221 -47 319 -121q150 -111 139 -333q-8 -178 -155 -289q-129 -96 -322 -111q-188 -14 -348 58q-174 80 -250 251l152 68q51 -117 172 -170q113 -49 247 -43q137 6 230 68q98 66 108 174q12 147 -110 219q-74 41 -303 90q-227 47 -322 109
q-152 100 -145 303q6 176 149 282q125 96 314 109q184 14 342 -55q172 -76 245 -246l-151 -68q-49 115 -166 166q-111 49 -244 43t-221 -65q-94 -66 -102 -173q-11 -129 114 -188zM709 1505h-162l-262 275h198l148 -142l139 142h201z" />
    <glyph glyph-name="scaron" unicode="&#x161;" horiz-adv-x="847" 
d="M170 303q131 -176 309 -170q209 2 207 158q0 131 -219 172q-170 29 -252 80q-129 80 -129 235q0 158 133 244q109 70 260 70q190 0 326 -127l-105 -121q-90 92 -221 92q-94 0 -157 -35q-76 -39 -76 -123q0 -76 82 -116q47 -23 168 -46q348 -66 352 -325q0 -152 -117 -238
q-98 -72 -252 -76q-276 -6 -434 248zM555 1090h-147l-246 256h186l135 -129l127 129h189z" />
    <glyph glyph-name="Ydieresis" unicode="&#x178;" horiz-adv-x="1120" 
d="M399 1720q106 0 107 -106q0 -106 -107 -107q-106 0 -106 107q0 106 106 106zM805 1720q106 0 106 -106t-106 -107q-106 0 -107 107q1 106 107 106zM684 563v-573h-166v573l-512 895h195l401 -721l399 721h197z" />
    <glyph glyph-name="Zcaron" unicode="&#x17d;" horiz-adv-x="1132" 
d="M82 1292v166h1016l53 -117l-864 -1185h841v-166h-1038l-47 119l864 1183h-825zM672 1495h-160l-264 274h198l150 -141l139 141h201z" />
    <glyph glyph-name="zcaron" unicode="&#x17e;" horiz-adv-x="878" 
d="M74 915v162h739l86 -106l-629 -821l619 4v-164h-770l-90 104l637 828zM557 1077h-149l-250 260h190l139 -133l129 133h191z" />
    <glyph glyph-name="florin" unicode="&#x192;" horiz-adv-x="1017" 
d="M842 725h-240l-139 -756q-53 -268 -311 -268q-109 0 -191 68l86 135q57 -47 113 -47q115 0 151 204l123 664h-213v154h240l55 290q57 313 309 314q106 0 215 -78l-92 -129q-74 51 -123 51q-113 0 -143 -162l-51 -286h211v-154z" />
    <glyph glyph-name="circumflex" unicode="&#x2c6;" horiz-adv-x="526" 
d="M229 1458h162l260 -287h-196l-148 154l-139 -154h-199z" />
    <glyph glyph-name="caron" unicode="&#x2c7;" horiz-adv-x="516" 
d="M387 1182h-162l-262 274h199l147 -141l140 141h200z" />
    <glyph glyph-name="breve" unicode="&#x2d8;" horiz-adv-x="481" 
d="M512 1452q-16 -135 -98 -199q-74 -57 -172 -57q-100 0 -174 57q-80 63 -95 199h144q25 -109 127 -109q100 -2 121 109h147z" />
    <glyph glyph-name="dotaccent" unicode="&#x2d9;" horiz-adv-x="483" 
d="M182 1413q37 37 90 37t90 -37q35 -37 35 -90t-35 -90q-37 -37 -90 -37t-90 37t-37 90t37 90z" />
    <glyph glyph-name="ring" unicode="&#x2da;" horiz-adv-x="481" 
d="M115 1466q63 66 151 66t150 -68q59 -63 59 -149q0 -84 -61 -148q-61 -66 -148 -65q-88 0 -151 63q-61 63 -62 152q1 86 62 149zM317 1372q-23 23 -53 23q-31 0 -53 -23q-20 -25 -21 -57q0 -33 21 -55q23 -20 53 -21q31 0 53 23q20 23 21 55q-1 32 -21 55z" />
    <glyph glyph-name="ogonek" unicode="&#x2db;" horiz-adv-x="481" 
d="M430 -301q-94 -84 -201 -84q-90 0 -147 49q-61 53 -62 139q0 172 197 236h166q-193 -147 -193 -209q0 -57 54 -61q57 -2 110 69z" />
    <glyph glyph-name="tilde" unicode="&#x2dc;" horiz-adv-x="544" 
d="M23 1278q27 127 118 160q88 33 183 -21q39 -23 71 -20q35 0 58 55l112 -43q-23 -125 -116 -154q-80 -25 -168 21q-117 59 -148 -37z" />
    <glyph glyph-name="hungarumlaut" unicode="&#x2dd;" horiz-adv-x="548" 
d="M182 1458h221l-204 -330h-150zM475 1458h221l-204 -330h-150z" />
    <glyph glyph-name="pi" unicode="&#x3c0;" horiz-adv-x="1101" 
d="M1047 -12q-276 12 -277 305v645h-369v-948h-157v948q-115 0 -205 -35l-35 123q104 63 289 64h811l-17 -152h-151v-633q0 -98 18 -133q16 -33 88 -29z" />
    <glyph glyph-name="afii57388" unicode="&#x60c;" horiz-adv-x="708" 
d="M387 0h-227v207q0 117 53 202t172 119v-102q-35 -12 -58.5 -35.5t-38 -51.5t-19.5 -57.5t-3 -54.5h121v-227z" />
    <glyph glyph-name="afii57403" unicode="&#x61b;" horiz-adv-x="704" 
d="M450 479h-227v207q0 117 53 202t172 119v-102q-35 -12 -58.5 -35.5t-38 -51.5t-19.5 -57.5t-3 -54.5h121v-227zM205 184q35 35 86 35t86 -35t35 -86t-35 -86t-86 -35t-86 35t-35 86t35 86z" />
    <glyph glyph-name="afii57407" unicode="&#x61f;" horiz-adv-x="1175" 
d="M784 926q0 57 -13 108t-42 90t-72 60.5t-102 21.5q-92 0 -146.5 -49t-54.5 -141q0 -49 10.5 -87t28 -68t41 -54.5t49.5 -48.5q29 -27 56.5 -55.5t50 -63.5t37 -77t14.5 -95v-51h-162v39q0 84 -43 139t-100 106q-61 53 -107.5 124t-46.5 175q0 84 28 149.5t77 112
t117.5 70t150.5 23.5q92 0 164 -33t123 -89t77.5 -135t26.5 -171h-162zM442 227h228v-227h-228v227z" />
    <glyph glyph-name="afii57409" unicode="&#x621;" horiz-adv-x="733" 
d="M670 0h-617v147h150q-68 80 -68 193q0 78 25.5 136.5t67.5 96t96.5 57t111.5 19.5q59 0 102.5 -5t59.5 -11v-160q-59 27 -145 27q-92 0 -132 -52.5t-40 -113.5q0 -78 46 -132.5t150 -54.5h193v-147z" />
    <glyph glyph-name="afii57410" unicode="&#x622;" horiz-adv-x="454" 
d="M-125 1741q47 47 89 61.5t83 14.5q39 0 93.5 -18.5t101.5 -41.5q49 -23 94 -38t80 -15q53 0 79.5 28.5t37.5 59.5l65 -29q-29 -80 -67.5 -121t-114.5 -41q-55 0 -105.5 17.5t-97.5 40.5t-94 39t-88 16q-35 0 -58.5 -8t-54.5 -31zM319 1462v-1462h-168v1462h168z" />
    <glyph glyph-name="afii57411" unicode="&#x623;" horiz-adv-x="454" 
d="M416 1615h-375v93h92q-29 47 -29 104q0 90 53.5 136t121.5 46q35 0 60.5 -4t37.5 -14v-94q-41 18 -88 18q-49 0 -71.5 -28.5t-22.5 -63.5q0 -41 26.5 -70.5t79.5 -29.5h115v-93zM311 1462v-1462h-168v1462h168z" />
    <glyph glyph-name="afii57412" unicode="&#x624;" horiz-adv-x="993" 
d="M455 0q-80 0 -148.5 18.5t-119 60.5t-80 111.5t-29.5 171.5q0 82 26.5 161t77.5 140.5t127 98.5t174 37q109 0 183.5 -40t119.5 -110.5t64.5 -168t19.5 -214.5v-192q0 -154 -41 -251t-116.5 -153.5t-186 -77t-247.5 -20.5h-86v170h63q98 0 179 8t139.5 37t91 84t32.5 149
v39q-37 -23 -96 -41t-147 -18zM242 381q0 -117 62.5 -167t166.5 -50q78 0 137.5 20.5t89.5 44.5v76q0 70 -11 131.5t-37.5 105.5t-69.5 69.5t-105 25.5q-63 0 -107 -24.5t-72 -61.5t-41 -82t-13 -88zM676 1026h-446v109h104q-47 59 -47 139q0 57 18.5 99t49 69.5t69.5 42
t82 14.5t75 -6t44 -10v-111q-47 18 -106 19q-66 0 -95.5 -38t-29.5 -83q0 -57 34.5 -96t106.5 -39h141v-109z" />
    <glyph glyph-name="afii57413" unicode="&#x625;" horiz-adv-x="454" 
d="M396 -510h-375v94h92q-29 47 -29 103q0 92 53.5 138t121.5 46q35 0 60.5 -4t37.5 -14v-97q-41 18 -88 19q-49 0 -71.5 -29t-22.5 -63q0 -41 26.5 -70t79.5 -29h115v-94zM311 1462v-1462h-168v1462h168z" />
    <glyph glyph-name="afii57414" unicode="&#x626;" horiz-adv-x="1505" 
d="M166 55q0 -80 25.5 -146.5t86 -114.5t160 -74.5t246.5 -26.5q106 0 203.5 15.5t172.5 44t119 70.5t44 95q0 47 -31 79t-117 75q-61 31 -113.5 63.5t-90 72.5t-60.5 90t-23 118q0 78 28 157.5t84 144t140 104.5t199 40q68 0 120 -15.5t60 -19.5v-172q-41 12 -89 20.5
t-95 8.5q-68 0 -120 -21.5t-86 -56.5t-51 -78t-17 -86q0 -41 15 -70.5t41.5 -54t61.5 -45t76 -43.5q70 -39 117 -71.5t74.5 -63.5t40 -62.5t12.5 -68.5q0 -86 -39 -166t-125 -141.5t-222 -99t-329 -37.5t-324 37.5t-210.5 104.5t-114.5 158t-35 199v306h166v-269zM485 620
h-446v109h104q-47 59 -47 139q0 57 18.5 99t49 69.5t69.5 42t82 14.5t75 -6t44 -10v-111q-47 18 -106 19q-66 0 -95.5 -38t-29.5 -83q0 -57 34.5 -96t106.5 -39h141v-109z" />
    <glyph glyph-name="afii57415" unicode="&#x627;" horiz-adv-x="454" 
d="M311 1462v-1462h-168v1462h168z" />
    <glyph glyph-name="afii57416" unicode="&#x628;" horiz-adv-x="1798" 
d="M1655 0h-1241q-119 0 -198 16.5t-127 52t-68.5 92t-20.5 138.5v317h168v-256q0 -63 15.5 -101t52 -57.5t100 -25.5t162.5 -6h989v618h168v-788zM743 -311q0 45 32 76.5t77 31.5t76.5 -31.5t31.5 -76.5t-31.5 -77t-76.5 -32t-77 32t-32 77z" />
    <glyph glyph-name="afii57417" unicode="&#x629;" horiz-adv-x="876" 
d="M387 651q-51 0 -94 -23.5t-74 -62.5t-48 -90t-17 -108q0 -55 18 -95.5t50 -66t74 -36.5t89 -11q43 0 85 9t75 32.5t53 61.5t20 97q0 68 -19 121t-51 92t-74 59.5t-87 20.5zM0 350q0 82 26.5 165t78 150.5t124 109.5t164.5 42q80 0 148.5 -31.5t121 -92t82 -146.5
t29.5 -197q0 -68 -21.5 -132t-69.5 -114.5t-123 -82t-179 -31.5q-86 0 -155.5 21.5t-120 66.5t-78 112.5t-27.5 159.5zM131 1133q0 45 32 76.5t77 31.5t76.5 -31.5t31.5 -76.5t-31.5 -77t-76.5 -32t-77 32t-32 77zM397 1133q0 45 32 76.5t77 31.5t76.5 -31.5t31.5 -76.5
t-31.5 -77t-76.5 -32t-77 32t-32 77z" />
    <glyph glyph-name="afii57418" unicode="&#x62a;" horiz-adv-x="1798" 
d="M1655 0h-1241q-119 0 -198 16.5t-127 52t-68.5 92t-20.5 138.5v317h168v-256q0 -63 15.5 -101t52 -57.5t100 -25.5t162.5 -6h989v618h168v-788zM598 1014q0 45 32 76.5t77 31.5t76.5 -31.5t31.5 -76.5t-31.5 -77t-76.5 -32t-77 32t-32 77zM864 1014q0 45 32 76.5t77 31.5
t76.5 -31.5t31.5 -76.5t-31.5 -77t-76.5 -32t-77 32t-32 77z" />
    <glyph glyph-name="afii57419" unicode="&#x62b;" horiz-adv-x="1798" 
d="M1655 0h-1241q-119 0 -198 16.5t-127 52t-68.5 92t-20.5 138.5v317h168v-256q0 -63 15.5 -101t52 -57.5t100 -25.5t162.5 -6h989v618h168v-788zM592 1014q0 45 32 76.5t77 31.5t76.5 -31.5t31.5 -76.5t-31.5 -77t-76.5 -32t-77 32t-32 77zM858 1014q0 45 32 76.5t77 31.5
t76.5 -31.5t31.5 -76.5t-31.5 -77t-76.5 -32t-77 32t-32 77zM729 1259q0 45 32 77t77 32t76.5 -32t31.5 -77t-31.5 -76.5t-76.5 -31.5t-77 31.5t-32 76.5z" />
    <glyph glyph-name="afii57420" unicode="&#x62c;" horiz-adv-x="1277" 
d="M999 170q0 131 -34.5 221t-94 146.5t-139.5 82t-168 25.5q-59 0 -125.5 -11t-109.5 -24v164q41 12 108.5 27.5t147.5 15.5q156 0 268.5 -53t184 -144.5t105.5 -213t34 -256.5v-150h-615q-66 0 -133.5 -13.5t-123.5 -47t-92 -94t-36 -154.5q0 -88 32 -151.5t87 -104.5
t128 -60.5t157 -19.5h419v-174h-413q-131 0 -238.5 30.5t-184.5 92t-120 153.5t-43 215q0 147 51 243.5t132 153t181.5 79t198.5 22.5h436zM538 -311q0 45 32 76.5t77 31.5t76.5 -31.5t31.5 -76.5t-31.5 -77t-76.5 -32t-77 32t-32 77z" />
    <glyph glyph-name="afii57421" unicode="&#x62d;" horiz-adv-x="1277" 
d="M999 170q0 131 -34.5 221t-94 146.5t-139.5 82t-168 25.5q-59 0 -125.5 -11t-109.5 -24v164q41 12 108.5 27.5t147.5 15.5q156 0 268.5 -53t184 -144.5t105.5 -213t34 -256.5v-150h-615q-66 0 -133.5 -13.5t-123.5 -47t-92 -94t-36 -154.5q0 -88 32 -151.5t87 -104.5
t128 -60.5t157 -19.5h419v-174h-413q-131 0 -238.5 30.5t-184.5 92t-120 153.5t-43 215q0 147 51 243.5t132 153t181.5 79t198.5 22.5h436z" />
    <glyph glyph-name="afii57422" unicode="&#x62e;" horiz-adv-x="1277" 
d="M999 170q0 131 -34.5 221t-94 146.5t-139.5 82t-168 25.5q-59 0 -125.5 -11t-109.5 -24v164q41 12 108.5 27.5t147.5 15.5q156 0 268.5 -53t184 -144.5t105.5 -213t34 -256.5v-150h-615q-66 0 -133.5 -13.5t-123.5 -47t-92 -94t-36 -154.5q0 -88 32 -151.5t87 -104.5
t128 -60.5t157 -19.5h419v-174h-413q-131 0 -238.5 30.5t-184.5 92t-120 153.5t-43 215q0 147 51 243.5t132 153t181.5 79t198.5 22.5h436zM491 1133q0 45 32 76.5t77 31.5t76.5 -31.5t31.5 -76.5t-31.5 -77t-76.5 -32t-77 32t-32 77z" />
    <glyph glyph-name="afii57423" unicode="&#x62f;" horiz-adv-x="915" 
d="M815 225q0 -98 -67.5 -161.5t-196.5 -63.5h-490v170h476q70 0 88 21.5t18 48.5q0 20 -8 42.5t-40 73t-92.5 139.5t-164.5 242l158 99q82 -141 142 -237.5t99 -164t58.5 -116t19.5 -93.5z" />
    <glyph glyph-name="afii57424" unicode="&#x630;" horiz-adv-x="915" 
d="M815 225q0 -98 -67.5 -161.5t-196.5 -63.5h-490v170h476q70 0 88 21.5t18 48.5q0 20 -8 42.5t-40 73t-92.5 139.5t-164.5 242l158 99q82 -141 142 -237.5t99 -164t58.5 -116t19.5 -93.5zM295 1133q0 45 32 76.5t77 31.5t76.5 -31.5t31.5 -76.5t-31.5 -77t-76.5 -32
t-77 32t-32 77z" />
    <glyph glyph-name="afii57425" unicode="&#x631;" horiz-adv-x="600" 
d="M291 686h166v-571q0 -152 -17.5 -255.5t-66.5 -167t-136 -92t-225 -28.5v170q100 0 156.5 21.5t84.5 69.5t33 123t5 181v549z" />
    <glyph glyph-name="afii57426" unicode="&#x632;" horiz-adv-x="600" 
d="M291 686h166v-571q0 -152 -17.5 -255.5t-66.5 -167t-136 -92t-225 -28.5v170q100 0 156.5 21.5t84.5 69.5t33 123t5 181v549zM266 1133q0 45 32 76.5t77 31.5t76.5 -31.5t31.5 -76.5t-31.5 -77t-76.5 -32t-77 32t-32 77z" />
    <glyph glyph-name="afii57427" unicode="&#x633;" horiz-adv-x="2344" 
d="M1124 25q0 -268 -147.5 -387t-413.5 -119q-283 0 -423 125t-140 364v316h166v-281q0 -98 25.5 -167t75.5 -110.5t126 -60t174 -18.5q102 0 176 14t122 53t70.5 104.5t22.5 168.5v659h166v-291q0 -51 6.5 -93t28 -70.5t60 -45t106.5 -16.5q49 0 85 4t59.5 19.5t35 45
t11.5 80.5v367h167v-291q0 -51 7.5 -93t27 -70.5t54 -45t88.5 -16.5h172v618h168v-788h-340q-80 0 -128.5 38t-64.5 95q-37 -84 -117 -108.5t-202 -24.5q-98 0 -149.5 29.5t-74.5 70.5v-75z" />
    <glyph glyph-name="afii57428" unicode="&#x634;" horiz-adv-x="2344" 
d="M1124 25q0 -268 -147.5 -387t-413.5 -119q-283 0 -423 125t-140 364v316h166v-281q0 -98 25.5 -167t75.5 -110.5t126 -60t174 -18.5q102 0 176 14t122 53t70.5 104.5t22.5 168.5v659h166v-291q0 -51 6.5 -93t28 -70.5t60 -45t106.5 -16.5q49 0 85 4t59.5 19.5t35 45
t11.5 80.5v367h167v-291q0 -51 7.5 -93t27 -70.5t54 -45t88.5 -16.5h172v618h168v-788h-340q-80 0 -128.5 38t-64.5 95q-37 -84 -117 -108.5t-202 -24.5q-98 0 -149.5 29.5t-74.5 70.5v-75zM1358 1133q0 45 32 76.5t77 31.5t76.5 -31.5t31.5 -76.5t-31.5 -77t-76.5 -32
t-77 32t-32 77zM1624 1133q0 45 32 76.5t77 31.5t76.5 -31.5t31.5 -76.5t-31.5 -77t-76.5 -32t-77 32t-32 77zM1495 1378q0 45 32 77t77 32t76.5 -32t31.5 -77t-31.5 -76.5t-76.5 -31.5t-77 31.5t-32 76.5z" />
    <glyph glyph-name="afii57429" unicode="&#x635;" horiz-adv-x="2658" 
d="M1352 170q39 113 107.5 228.5t163.5 208.5t216 151.5t262 58.5q209 0 321.5 -122t112.5 -349v-346h-1144q-127 0 -185.5 29.5t-81.5 70.5v-75q0 -268 -147.5 -387t-413.5 -119q-283 0 -423 125t-140 364v316h166v-281q0 -98 25.5 -167t75.5 -110.5t126 -60t174 -18.5
q102 0 176 14t122 53t70.5 104.5t22.5 168.5v659h166v-291q0 -51 7.5 -93t30 -70.5t67.5 -45t123 -16.5zM2367 170v137q0 74 -15 136.5t-50 107.5t-91.5 69.5t-135.5 24.5q-98 0 -184.5 -43t-155 -110.5t-120.5 -152.5t-83 -169h835z" />
    <glyph glyph-name="afii57430" unicode="&#x636;" horiz-adv-x="2658" 
d="M1352 170q39 113 107.5 228.5t163.5 208.5t216 151.5t262 58.5q209 0 321.5 -122t112.5 -349v-346h-1144q-127 0 -185.5 29.5t-81.5 70.5v-75q0 -268 -147.5 -387t-413.5 -119q-283 0 -423 125t-140 364v316h166v-281q0 -98 25.5 -167t75.5 -110.5t126 -60t174 -18.5
q102 0 176 14t122 53t70.5 104.5t22.5 168.5v659h166v-291q0 -51 7.5 -93t30 -70.5t67.5 -45t123 -16.5zM2367 170v137q0 74 -15 136.5t-50 107.5t-91.5 69.5t-135.5 24.5q-98 0 -184.5 -43t-155 -110.5t-120.5 -152.5t-83 -169h835zM1970 1133q0 45 32 76.5t77 31.5
t76.5 -31.5t31.5 -76.5t-31.5 -77t-76.5 -32t-77 32t-32 77z" />
    <glyph glyph-name="afii57431" unicode="&#x637;" horiz-adv-x="1579" 
d="M1288 170v137q0 70 -14 132.5t-49 107.5t-91.5 71.5t-138.5 26.5q-98 0 -182 -45t-151.5 -113.5t-117.5 -152.5t-81 -164h825zM463 461q104 172 244.5 264t326.5 92q199 0 310.5 -124t111.5 -347v-346h-1421v170h260v1292h168v-1001z" />
    <glyph glyph-name="afii57432" unicode="&#x638;" horiz-adv-x="1579" 
d="M1288 170v137q0 70 -14 132.5t-49 107.5t-91.5 71.5t-138.5 26.5q-98 0 -182 -45t-151.5 -113.5t-117.5 -152.5t-81 -164h825zM463 461q104 172 244.5 264t326.5 92q199 0 310.5 -124t111.5 -347v-346h-1421v170h260v1292h168v-1001zM938 1133q0 45 32 76.5t77 31.5
t76.5 -31.5t31.5 -76.5t-31.5 -77t-76.5 -32t-77 32t-32 77z" />
    <glyph glyph-name="afii57433" unicode="&#x639;" horiz-adv-x="1046" 
d="M371 150q-47 35 -78 103.5t-31 156.5q0 106 40 184t104.5 129t143.5 75.5t159 24.5q72 0 125 -8t75 -18v-183q-39 12 -84 21.5t-110 9.5q-129 0 -205 -63.5t-76 -173.5q0 -104 64.5 -171t199.5 -67h324v-170h-461q-66 0 -133.5 -13.5t-123.5 -48t-92 -95t-36 -152.5
q0 -84 32 -147.5t87 -105.5t128 -62.5t157 -20.5h419v-174h-413q-131 0 -238.5 31.5t-184.5 93t-120 153.5t-43 213q0 100 27.5 180t77 139.5t117 100t149.5 58.5z" />
    <glyph glyph-name="afii57434" unicode="&#x63a;" horiz-adv-x="1046" 
d="M371 150q-47 35 -78 103.5t-31 156.5q0 106 40 184t104.5 129t143.5 75.5t159 24.5q72 0 125 -8t75 -18v-183q-39 12 -84 21.5t-110 9.5q-129 0 -205 -63.5t-76 -173.5q0 -104 64.5 -171t199.5 -67h324v-170h-461q-66 0 -133.5 -13.5t-123.5 -48t-92 -95t-36 -152.5
q0 -84 32 -147.5t87 -105.5t128 -62.5t157 -20.5h419v-174h-413q-131 0 -238.5 31.5t-184.5 93t-120 153.5t-43 213q0 100 27.5 180t77 139.5t117 100t149.5 58.5zM555 1133q0 45 32 76.5t77 31.5t76.5 -31.5t31.5 -76.5t-31.5 -77t-76.5 -32t-77 32t-32 77z" />
    <glyph glyph-name="afii57440" unicode="&#x640;" horiz-adv-x="303" 
d="M0 0q-82 0 -82 82q0 51 19.5 69.5t62.5 18.5h303q82 0 82 -82q0 -51 -19.5 -69.5t-62.5 -18.5h-303z" />
    <glyph glyph-name="afii57441" unicode="&#x641;" horiz-adv-x="2052" 
d="M1313 412q0 -125 73.5 -183.5t180.5 -58.5h196v205q0 49 -9 99t-33.5 90t-67.5 65.5t-109 25.5q-55 0 -98 -19.5t-73 -52t-45 -77.5t-15 -94zM1208 170q-23 43 -39 95t-16 120q0 80 26.5 158t78 138t126 98t172.5 38q113 0 184.5 -41t113.5 -104.5t58.5 -140t16.5 -150.5
v-381h-1515q-119 0 -198 16.5t-127 52t-68.5 92t-20.5 138.5v317h168v-256q0 -63 15.5 -101t52 -57.5t100 -25.5t162.5 -6h710zM1460 1133q0 45 32 76.5t77 31.5t76.5 -31.5t31.5 -76.5t-31.5 -77t-76.5 -32t-77 32t-32 77z" />
    <glyph glyph-name="afii57442" unicode="&#x642;" horiz-adv-x="1488" 
d="M0 424h166v-269q0 -184 127 -276t391 -92q98 0 190.5 14t163 53t112.5 104.5t42 168.5v32q-37 -23 -96.5 -41t-147.5 -18q-80 0 -148.5 18.5t-118.5 60.5t-80 111.5t-30 171.5q0 82 27 161t78 140.5t127 98.5t174 37q109 0 183.5 -40t119.5 -110.5t64.5 -168t19.5 -214.5
v-172q0 -150 -47 -258t-135 -179t-214 -104.5t-284 -33.5q-190 0 -321.5 37.5t-211 104.5t-115.5 158t-36 199v306zM735 481q0 -117 62.5 -167t167.5 -50q78 0 137 20.5t90 44.5v76q0 70 -11.5 131.5t-38 105.5t-69.5 69.5t-104 25.5q-63 0 -107.5 -24.5t-72 -61.5t-41 -82
t-13.5 -88zM719 1235q0 45 32 76.5t77 31.5t76.5 -31.5t31.5 -76.5t-31.5 -77t-76.5 -32t-77 32t-32 77zM985 1235q0 45 32 76.5t77 31.5t76.5 -31.5t31.5 -76.5t-31.5 -77t-76.5 -32t-77 32t-32 77z" />
    <glyph glyph-name="afii57443" unicode="&#x643;" horiz-adv-x="1822" 
d="M1679 0h-1265q-119 0 -198 16.5t-127 52t-68.5 92t-20.5 138.5v317h168v-256q0 -63 15.5 -101t52 -57.5t100 -25.5t162.5 -6h1013v1292h168v-1462zM1055 604h-375v94h92q-29 47 -29 103q0 92 53.5 138t121.5 46q35 0 60.5 -4t37.5 -14v-97q-41 18 -88 19q-49 0 -71.5 -29
t-22.5 -63q0 -41 26.5 -70t79.5 -29h115v-94z" />
    <glyph glyph-name="afii57444" unicode="&#x644;" horiz-adv-x="1269" 
d="M1124 1462v-1437q0 -272 -145 -410.5t-416 -138.5q-139 0 -244.5 39t-176 109.5t-106.5 167.5t-36 216v316h166v-281q0 -399 401 -399q207 0 299 89t92 294v1435h166z" />
    <glyph glyph-name="afii57445" unicode="&#x645;" horiz-adv-x="1179" 
d="M289 289q25 137 74 229t109 147.5t125 78t120 22.5q76 0 142.5 -29.5t114.5 -84t75.5 -129t27.5 -167.5q0 -178 -84 -280.5t-262 -102.5q-98 0 -195.5 33t-201.5 111q-55 -12 -88 -34t-49.5 -57.5t-20.5 -90t-4 -132.5v-622h-172v626q0 102 11.5 179t43 133.5t88 97.5
t146.5 72zM907 362q0 45 -13 88.5t-39 76t-62.5 52t-85.5 19.5q-86 0 -166 -80t-127 -262q76 -49 150.5 -79t152.5 -30q86 0 138 49t52 166z" />
    <glyph glyph-name="afii57446" unicode="&#x646;" horiz-adv-x="1267" 
d="M0 559h166v-280q0 -199 101.5 -279t299.5 -80q102 0 176 15.5t122 53.5t70.5 104.5t22.5 168.5v526h166v-528q0 -270 -147.5 -389t-413.5 -119q-283 0 -423 126t-140 366v315zM461 867q0 45 32 76.5t77 31.5t76.5 -31.5t31.5 -76.5t-31.5 -77t-76.5 -32t-77 32t-32 77z
" />
    <glyph glyph-name="afii57470" unicode="&#x647;" horiz-adv-x="876" 
d="M387 651q-51 0 -94 -23.5t-74 -62.5t-48 -90t-17 -108q0 -55 18 -95.5t50 -66t74 -36.5t89 -11q43 0 85 9t75 32.5t53 61.5t20 97q0 68 -19 121t-51 92t-74 59.5t-87 20.5zM0 350q0 82 26.5 165t78 150.5t124 109.5t164.5 42q80 0 148.5 -31.5t121 -92t82 -146.5
t29.5 -197q0 -68 -21.5 -132t-69.5 -114.5t-123 -82t-179 -31.5q-86 0 -155.5 21.5t-120 66.5t-78 112.5t-27.5 159.5z" />
    <glyph glyph-name="afii57448" unicode="&#x648;" horiz-adv-x="993" 
d="M455 0q-80 0 -148.5 18.5t-119 60.5t-80 111.5t-29.5 171.5q0 82 26.5 161t77.5 140.5t127 98.5t174 37q109 0 183.5 -40t119.5 -110.5t64.5 -168t19.5 -214.5v-192q0 -154 -41 -251t-116.5 -153.5t-186 -77t-247.5 -20.5h-86v170h63q98 0 179 8t139.5 37t91 84t32.5 149
v39q-37 -23 -96 -41t-147 -18zM242 381q0 -117 62.5 -167t166.5 -50q78 0 137.5 20.5t89.5 44.5v76q0 70 -11 131.5t-37.5 105.5t-69.5 69.5t-105 25.5q-63 0 -107 -24.5t-72 -61.5t-41 -82t-13 -88z" />
    <glyph glyph-name="afii57449" unicode="&#x649;" horiz-adv-x="1505" 
d="M166 55q0 -80 25.5 -146.5t86 -114.5t160 -74.5t246.5 -26.5q106 0 203.5 15.5t172.5 44t119 70.5t44 95q0 47 -31 79t-117 75q-61 31 -113.5 63.5t-90 72.5t-60.5 90t-23 118q0 78 28 157.5t84 144t140 104.5t199 40q68 0 120 -15.5t60 -19.5v-172q-41 12 -89 20.5
t-95 8.5q-68 0 -120 -21.5t-86 -56.5t-51 -78t-17 -86q0 -41 15 -70.5t41.5 -54t61.5 -45t76 -43.5q70 -39 117 -71.5t74.5 -63.5t40 -62.5t12.5 -68.5q0 -86 -39 -166t-125 -141.5t-222 -99t-329 -37.5t-324 37.5t-210.5 104.5t-114.5 158t-35 199v306h166v-269z" />
    <glyph glyph-name="afii57450" unicode="&#x64a;" horiz-adv-x="1505" 
d="M166 209q0 -80 25.5 -146.5t86 -114.5t160 -74.5t246.5 -26.5q106 0 203.5 15.5t172.5 44t119 70.5t44 95q0 47 -31 79t-117 75q-61 31 -113.5 63.5t-90 72.5t-60.5 90t-23 118q0 78 28 157.5t84 144t140 104.5t199 40q68 0 120 -15.5t60 -19.5v-172q-41 12 -89 20.5
t-95 8.5q-68 0 -120 -21.5t-86 -56.5t-51 -78t-17 -86q0 -41 15 -70.5t41.5 -54t61.5 -45t76 -43.5q70 -39 117 -71.5t74.5 -63.5t40 -62.5t12.5 -68.5q0 -86 -39 -166t-125 -141.5t-222 -99t-329 -37.5t-324 37.5t-210.5 104.5t-114.5 158t-35 199v306h166v-269zM434 -641
q0 45 32 76.5t77 31.5t76.5 -31.5t31.5 -76.5t-31.5 -77t-76.5 -32t-77 32t-32 77zM700 -641q0 45 32 76.5t77 31.5t76.5 -31.5t31.5 -76.5t-31.5 -77t-76.5 -32t-77 32t-32 77z" />
    <glyph glyph-name="afii57451" unicode="&#x64b;" 
d="M246 1634l-492 -69v92l492 69v-92zM246 1477l-492 -70v92l492 70v-92z" />
    <glyph glyph-name="afii57452" unicode="&#x64c;" 
d="M88 1671q25 0 41 5t27 10v16q0 53 -21.5 80.5t-54.5 27.5q-37 0 -55.5 -24.5t-18.5 -50.5q0 -37 31 -50.5t51 -13.5zM145 1608q-33 -16 -75 -17q-66 0 -106 38t-40 102q0 70 45 115.5t111 45.5t112 -45t46 -145q0 -76 -19.5 -127t-52.5 -82t-77 -44t-93 -13
q-86 0 -138.5 37.5t-84.5 91.5l-125 -70l-41 78l194 110q35 -74 80 -118.5t121 -44.5q61 0 97 26.5t46 61.5z" />
    <glyph glyph-name="afii57453" unicode="&#x64d;" 
d="M246 -399l-492 -70v92l492 70v-92zM246 -557l-492 -70v92l492 70v-92z" />
    <glyph glyph-name="afii57454" unicode="&#x64e;" 
d="M246 1477l-492 -70v92l492 70v-92z" />
    <glyph glyph-name="afii57455" unicode="&#x64f;" 
d="M16 1671q25 0 41.5 5t26.5 10v16q0 53 -21.5 80.5t-54.5 27.5q-37 0 -55.5 -24.5t-18.5 -50.5q0 -37 31 -50.5t51 -13.5zM74 1608q-33 -16 -76 -17q-66 0 -105.5 38t-39.5 102q0 70 45 115.5t110 45.5q66 0 112 -45t46 -145q0 -76 -19.5 -126t-53.5 -81t-82 -44t-103 -13
q-53 0 -94 10v82q23 -4 51.5 -7t42.5 -3q78 0 117 26.5t49 61.5z" />
    <glyph glyph-name="afii57456" unicode="&#x650;" 
d="M246 -401l-492 -70v92l492 70v-92z" />
    <glyph glyph-name="afii57457" unicode="&#x651;" 
d="M10 1483q-25 -41 -61.5 -51.5t-59.5 -10.5q-145 0 -145 166v139h94v-127q0 -86 60 -86q23 0 43 15.5t20 68.5v93h94v-91q0 -53 20.5 -67t41.5 -14q37 0 47 19t10 56v133h94v-139q0 -86 -33.5 -126t-105.5 -40q-31 0 -62.5 13.5t-56.5 48.5z" />
    <glyph glyph-name="afii57458" unicode="&#x652;" 
d="M-164 1599q0 68 47 116t115 48t116 -48t48 -116t-48 -114.5t-116 -46.5t-115 46.5t-47 114.5zM-90 1602q0 -37 26.5 -64t63.5 -27t63.5 27t26.5 64t-26.5 63.5t-63.5 26.5t-63.5 -26.5t-26.5 -63.5z" />
    <glyph glyph-name="uni0653" unicode="&#x653;" 
d="M-336 1653q47 47 89 61.5t83 14.5q39 0 93.5 -18.5t101.5 -41.5q49 -23 94 -38t80 -15q53 0 79.5 28.5t37.5 59.5l65 -29q-29 -80 -67.5 -121t-114.5 -41q-55 0 -105.5 17.5t-97.5 40.5t-94 39t-88 16q-35 0 -58.5 -8t-54.5 -31z" />
    <glyph glyph-name="uni0654" unicode="&#x654;" 
d="M160 1513h-375v93h92q-29 47 -29 104q0 90 53.5 136t121.5 46q35 0 60.5 -4t37.5 -14v-94q-41 18 -88 18q-49 0 -71.5 -28.5t-22.5 -63.5q0 -41 26.5 -70.5t79.5 -29.5h115v-93z" />
    <glyph glyph-name="uni0655" unicode="&#x655;" 
d="M160 -510h-375v94h92q-29 47 -29 103q0 92 53.5 138t121.5 46q35 0 60.5 -4t37.5 -14v-97q-41 18 -88 19q-49 0 -71.5 -29t-22.5 -63q0 -41 26.5 -70t79.5 -29h115v-94z" />
    <glyph glyph-name="uni0656" unicode="&#x656;" 
d="M-45 -205h96v-411h-96v411z" />
    <glyph glyph-name="uni0658" unicode="&#x658;" 
d="M199 1706v-152q0 -104 -52.5 -154t-144.5 -50t-146.5 52t-54.5 152v152h88v-156q0 -57 31 -87.5t82 -30.5q49 0 79 30.5t30 87.5v156h88z" />
    <glyph glyph-name="afii57392" unicode="&#x660;" horiz-adv-x="1067" 
d="M514 412q0 -72 74 -72q72 0 71 72q0 74 -71 73q-74 1 -74 -73zM414 240q-72 70 -72 172t72 174q72 74 174 73q102 0 174 -73q72 -72 72 -174t-72 -172q-72 -74 -174 -74q-100 0 -174 74z" />
    <glyph glyph-name="afii57393" unicode="&#x661;" horiz-adv-x="1064" 
d="M659 1462v-1462h-174v1462h174z" />
    <glyph glyph-name="afii57394" unicode="&#x662;" horiz-adv-x="1064" 
d="M887 1464v-438q0 -172 -86 -235q-59 -45 -189 -46h-127q-84 0 -102 7v-752h-172v1464h172v-446q0 -59 20 -80q18 -20 84 -20h125q63 0 84 20q18 18 19 80v446h172z" />
    <glyph glyph-name="afii57395" unicode="&#x663;" horiz-adv-x="1202" 
d="M1130 1462v-438q0 -172 -88 -236q-59 -45 -188 -45h-33q-139 0 -188 45q-45 -45 -189 -45h-18q-86 0 -102 7v-750h-172v1462h172v-446q0 -59 20 -80q18 -18 84 -18h18q66 0 84 18q16 18 17 80v446h174v-446q0 -59 18 -80q18 -18 84 -18h31q66 0 84 18t18 80v446h174z" />
    <glyph glyph-name="afii57396" unicode="&#x664;" horiz-adv-x="843" 
d="M840 0h-150q-418 0 -549 129q-98 96 -98 258q0 182 127 295q59 55 98 72q-4 2 -43 37q-117 106 -116 272q0 172 104 274q129 127 477 125h51v-178h-51q-274 2 -350 -74q-49 -47 -49 -147q0 -88 57 -143q86 -78 283 -91h110v-178h-141q-213 -12 -309 -98q-68 -63 -68 -166
q0 -88 45 -131q80 -80 572 -78v-178z" />
    <glyph glyph-name="afii57397" unicode="&#x665;" horiz-adv-x="841" 
d="M449 0q-74 0 -146 26.5t-126 89t-88 164t-34 255.5q0 256 31 432t84 284.5t126 159.5t155 51t155.5 -48t126.5 -158.5t85 -286.5t32 -434q0 -154 -35 -256.5t-91 -165t-129.5 -88t-145.5 -25.5zM451 190q51 0 92 14.5t70.5 50.5t49 105.5t19.5 182.5q0 195 -21.5 337
t-55.5 234t-73.5 134t-80.5 42q-39 0 -79 -42t-75 -134t-56.5 -234.5t-21.5 -336.5q0 -113 19.5 -181.5t50 -105.5t73 -51.5t89.5 -14.5z" />
    <glyph glyph-name="afii57398" unicode="&#x666;" horiz-adv-x="841" 
d="M719 1384q115 -92 115 -249v-1135h-181v1135q0 70 -47 108q-47 39 -125 39h-422v180h422q142 0 238 -78z" />
    <glyph glyph-name="afii57399" unicode="&#x667;" horiz-adv-x="1200" 
d="M1141 1462l-426 -1462h-174l-424 1462h178l332 -1173l327 1173h187z" />
    <glyph glyph-name="afii57400" unicode="&#x668;" horiz-adv-x="1200" 
d="M954 0l-327 1171l-332 -1171h-178l424 1462h174l426 -1462h-187z" />
    <glyph glyph-name="afii57401" unicode="&#x669;" horiz-adv-x="1064" 
d="M743 1149q0 70 -47 108q-47 39 -125 39q-231 0 -231 -194q0 -115 61 -158q109 -74 342 -4v209zM809 1384q115 -92 115 -249v-1135h-181v739q-276 -72 -444 43q-139 96 -139 305q0 174 131 279q119 96 280 96q144 0 238 -78z" />
    <glyph glyph-name="afii57381" unicode="&#x66a;" horiz-adv-x="1232" 
d="M1130 1202l-909 -1251l-121 90l910 1247zM309 895l-182 182l182 176l180 -178zM889 6l-182 182l182 177l180 -179z" />
    <glyph glyph-name="uni066B" unicode="&#x66b;" horiz-adv-x="647" 
d="M152 227h227v-207q0 -117 -53.5 -201.5t-171.5 -119.5v102q33 12 57.5 36t38.5 51.5t19 57t3 54.5h-120v227z" />
    <glyph glyph-name="uni066C" unicode="&#x66c;" horiz-adv-x="657" 
d="M152 227h227v-207q0 -117 -53.5 -201.5t-171.5 -119.5v102q33 12 57.5 36t38.5 51.5t19 57t3 54.5h-120v227z" />
    <glyph glyph-name="afii63167" unicode="&#x66d;" horiz-adv-x="702" 
d="M354 1212l-180 -186l123 227l-234 113l254 -43l37 254l35 -254l254 43l-231 -113l120 -227z" />
    <glyph glyph-name="uni0670" unicode="&#x670;" 
d="M-45 1767h96v-411h-96v411z" />
    <glyph glyph-name="uni0671" unicode="&#x671;" horiz-adv-x="454" 
d="M311 1462v-1462h-168v1462h168zM364 1669v29q0 35 -15.5 60.5t-60.5 25.5q-43 0 -82 -34t-55 -81h213zM149 1767q61 86 150 86q59 0 93 -37.5t34 -105.5v-108h-416v67h73v164h66v-66z" />
    <glyph glyph-name="afii57511" unicode="&#x679;" horiz-adv-x="1798" 
d="M1030 915v39q0 43 -19.5 76t-74.5 33q-57 0 -105.5 -44t-70.5 -104h270zM756 1042q80 109 192 109q76 0 119 -48t43 -134v-140h-532v86h96v424h82v-297zM1655 0h-1241q-119 0 -198 16.5t-127 52t-68.5 92t-20.5 138.5v317h168v-256q0 -63 15.5 -101t52 -57.5t100 -25.5
t162.5 -6h989v618h168v-788z" />
    <glyph glyph-name="afii57506" unicode="&#x67e;" horiz-adv-x="1798" 
d="M1655 0h-1241q-119 0 -198 16.5t-127 52t-68.5 92t-20.5 138.5v317h168v-256q0 -63 15.5 -101t52 -57.5t100 -25.5t162.5 -6h989v618h168v-788zM1079 -309q0 -45 -31.5 -77t-76.5 -32t-77 32t-32 77t32 76.5t77 31.5t76.5 -31.5t31.5 -76.5zM813 -309q0 -45 -31.5 -77
t-76.5 -32t-77 32t-32 77t32 76.5t77 31.5t76.5 -31.5t31.5 -76.5zM942 -555q0 -45 -31.5 -77t-76.5 -32t-77 32t-32 77t32 77t77 32t76.5 -32t31.5 -77z" />
    <glyph glyph-name="afii57507" unicode="&#x686;" horiz-adv-x="1228" 
d="M876 -215q0 -45 -31.5 -77t-76.5 -32t-77 32t-32 77t32 76.5t77 31.5t76.5 -31.5t31.5 -76.5zM610 -215q0 -45 -31.5 -77t-76.5 -32t-77 32t-32 77t32 76.5t77 31.5t76.5 -31.5t31.5 -76.5zM739 -461q0 -45 -31.5 -77t-76.5 -32t-77 32t-32 77t32 77t77 32t76.5 -32
t31.5 -77zM989 170q0 131 -34.5 221t-94 146.5t-139.5 82t-168 25.5q-59 0 -125.5 -11t-109.5 -24v164q41 12 108.5 27.5t147.5 15.5q156 0 268.5 -53t184 -144.5t105.5 -213t34 -256.5v-150h-615q-66 0 -133.5 -13.5t-123.5 -47t-92 -94t-36 -154.5q0 -88 32 -151.5
t87 -104.5t128 -60.5t157 -19.5h419v-174h-413q-131 0 -238.5 30.5t-184.5 92t-120 153.5t-43 215q0 147 51 243.5t132 153t181.5 79t198.5 22.5h436z" />
    <glyph glyph-name="afii57512" unicode="&#x688;" horiz-adv-x="915" 
d="M670 1106v39q0 43 -19.5 75.5t-75.5 32.5q-57 0 -105 -44t-71 -103h271zM395 1233q80 109 193 108q76 0 119 -48t43 -134v-139h-533v86h96v424h82v-297zM815 225q0 -98 -67.5 -161.5t-196.5 -63.5h-490v170h476q70 0 88 21.5t18 48.5q0 20 -8 42.5t-40 73t-92.5 139.5
t-164.5 242l158 99q82 -141 142 -237.5t99 -164t58.5 -116t19.5 -93.5z" />
    <glyph glyph-name="afii57513" unicode="&#x691;" horiz-adv-x="600" 
d="M500 1038v39q0 43 -19.5 76t-74.5 33q-57 0 -105.5 -44t-71.5 -104h271zM225 1165q80 109 193 109q76 0 119 -48t43 -134v-140h-533v86h96v424h82v-297zM291 686h166v-571q0 -152 -17.5 -255.5t-66.5 -167t-136 -92t-225 -28.5v170q100 0 156.5 21.5t84.5 69.5t33 123
t5 181v549z" />
    <glyph glyph-name="afii57508" unicode="&#x698;" horiz-adv-x="600" 
d="M291 686h166v-571q0 -152 -17.5 -255.5t-66.5 -167t-136 -92t-225 -28.5v170q100 0 156.5 21.5t84.5 69.5t33 123t5 181v549zM131 1014q0 45 32 76.5t77 31.5t76.5 -31.5t31.5 -76.5t-31.5 -77t-76.5 -32t-77 32t-32 77zM397 1014q0 45 32 76.5t77 31.5t76.5 -31.5
t31.5 -76.5t-31.5 -77t-76.5 -32t-77 32t-32 77zM268 1259q0 45 32 77t77 32t76.5 -32t31.5 -77t-31.5 -76.5t-76.5 -31.5t-77 31.5t-32 76.5z" />
    <glyph glyph-name="afii57505" unicode="&#x6a4;" horiz-adv-x="2052" 
d="M1313 412q0 -125 73.5 -183.5t180.5 -58.5h196v205q0 49 -9 99t-33.5 90t-67.5 65.5t-109 25.5q-55 0 -98 -19.5t-73 -52t-45 -77.5t-15 -94zM1208 170q-23 43 -39 95t-16 120q0 80 26.5 158t78 138t126 98t172.5 38q113 0 184.5 -41t113.5 -104.5t58.5 -140t16.5 -150.5
v-381h-1515q-119 0 -198 16.5t-127 52t-68.5 92t-20.5 138.5v317h168v-256q0 -63 15.5 -101t52 -57.5t100 -25.5t162.5 -6h710zM1282 1133q0 45 32 76.5t77 31.5t76.5 -31.5t31.5 -76.5t-31.5 -77t-76.5 -32t-77 32t-32 77zM1548 1133q0 45 32 76.5t77 31.5t76.5 -31.5
t31.5 -76.5t-31.5 -77t-76.5 -32t-77 32t-32 77zM1419 1378q0 45 32 77t77 32t76.5 -32t31.5 -77t-31.5 -76.5t-76.5 -31.5t-77 31.5t-32 76.5z" />
    <glyph glyph-name="uni06A9" unicode="&#x6a9;" horiz-adv-x="1810" 
d="M414 0q-119 0 -198 16.5t-127 52t-68.5 92t-20.5 138.5v317h168v-256q0 -63 15.5 -101t52 -57.5t100 -25.5t162.5 -6h817q76 0 126 26.5t50 102.5q0 53 -50 121.5t-133 139.5t-190.5 139.5t-220.5 123.5q2 25 12.5 50.5t22.5 47t25.5 38t21.5 22.5l750 330v-166
l-603 -266q143 -84 243.5 -164t163 -154t91.5 -142.5t29 -129.5q0 -43 -13.5 -94.5t-50.5 -94.5t-104.5 -71.5t-173.5 -28.5h-897z" />
    <glyph glyph-name="afii57509" unicode="&#x6af;" horiz-adv-x="1810" 
d="M414 0q-119 0 -198 16.5t-127 52t-68.5 92t-20.5 138.5v317h168v-256q0 -63 15.5 -101t52 -57.5t100 -25.5t162.5 -6h817q76 0 126 26.5t50 102.5q0 53 -50 121.5t-133 139.5t-190.5 139.5t-220.5 123.5q2 25 12.5 50.5t22.5 47t25.5 38t21.5 22.5l750 330v-166
l-603 -266q143 -84 243.5 -164t163 -154t91.5 -142.5t29 -129.5q0 -43 -13.5 -94.5t-50.5 -94.5t-104.5 -71.5t-173.5 -28.5h-897zM932 1073q0 29 11 59.5t26.5 56t33 45t29.5 26.5l696 317v-154z" />
    <glyph glyph-name="afii57514" unicode="&#x6ba;" horiz-adv-x="1267" 
d="M0 559h166v-280q0 -199 101.5 -279t299.5 -80q102 0 176 15.5t122 53.5t70.5 104.5t22.5 168.5v526h166v-528q0 -270 -147.5 -389t-413.5 -119q-283 0 -423 126t-140 366v315z" />
    <glyph glyph-name="uni06BE" unicode="&#x6be;" horiz-adv-x="1327" 
d="M295 170q-20 29 -38.5 82t-18.5 131q0 106 49 199.5t151 130.5q-41 0 -82 -1t-84 -3v153q223 12 400.5 -20.5t299.5 -117.5t186.5 -227.5t64.5 -346.5v-150h-1006q-41 0 -62.5 -9t-31.5 -25.5t-12 -40t-2 -52.5h-80q-16 41 -23.5 82t-7.5 68q0 47 16.5 76.5t42 45
t56 20.5t59.5 5h123zM553 170q41 2 67.5 23.5t42 53.5t21.5 68.5t6 69.5q0 45 -8 87t-26.5 75t-47 51t-69.5 18q-72 0 -112 -65.5t-40 -169.5q0 -37 7 -74t24.5 -66.5t45.5 -49t71 -21.5h10h8zM1051 170q0 219 -89.5 338t-242.5 166q35 -27 57.5 -63t36.5 -73.5t19.5 -75.5
t5.5 -71q0 -78 -14.5 -132t-32.5 -89h260z" />
    <glyph glyph-name="uni06C0" unicode="&#x6c0;" horiz-adv-x="876" 
d="M387 651q-51 0 -94 -23.5t-74 -62.5t-48 -90t-17 -108q0 -55 18 -95.5t50 -66t74 -36.5t89 -11q43 0 85 9t75 32.5t53 61.5t20 97q0 68 -19 121t-51 92t-74 59.5t-87 20.5zM0 350q0 82 26.5 165t78 150.5t124 109.5t164.5 42q80 0 148.5 -31.5t121 -92t82 -146.5
t29.5 -197q0 -68 -21.5 -132t-69.5 -114.5t-123 -82t-179 -31.5q-86 0 -155.5 21.5t-120 66.5t-78 112.5t-27.5 159.5zM563 1028h-375v93h92q-29 47 -29 104q0 90 53.5 136t121.5 46q35 0 60.5 -4t37.5 -14v-94q-41 18 -88 18q-49 0 -71.5 -28.5t-22.5 -63.5
q0 -41 26.5 -70.5t79.5 -29.5h115v-93z" />
    <glyph glyph-name="uni06C1" unicode="&#x6c1;" horiz-adv-x="876" 
d="M387 651q-51 0 -94 -23.5t-74 -62.5t-48 -90t-17 -108q0 -55 18 -95.5t50 -66t74 -36.5t89 -11q43 0 85 9t75 32.5t53 61.5t20 97q0 68 -19 121t-51 92t-74 59.5t-87 20.5zM0 350q0 82 26.5 165t78 150.5t124 109.5t164.5 42q80 0 148.5 -31.5t121 -92t82 -146.5
t29.5 -197q0 -68 -21.5 -132t-69.5 -114.5t-123 -82t-179 -31.5q-86 0 -155.5 21.5t-120 66.5t-78 112.5t-27.5 159.5z" />
    <glyph glyph-name="uni06C2" unicode="&#x6c2;" horiz-adv-x="876" 
d="M387 651q-51 0 -94 -23.5t-74 -62.5t-48 -90t-17 -108q0 -55 18 -95.5t50 -66t74 -36.5t89 -11q43 0 85 9t75 32.5t53 61.5t20 97q0 68 -19 121t-51 92t-74 59.5t-87 20.5zM0 350q0 82 26.5 165t78 150.5t124 109.5t164.5 42q80 0 148.5 -31.5t121 -92t82 -146.5
t29.5 -197q0 -68 -21.5 -132t-69.5 -114.5t-123 -82t-179 -31.5q-86 0 -155.5 21.5t-120 66.5t-78 112.5t-27.5 159.5zM563 1028h-375v93h92q-29 47 -29 104q0 90 53.5 136t121.5 46q35 0 60.5 -4t37.5 -14v-94q-41 18 -88 18q-49 0 -71.5 -28.5t-22.5 -63.5
q0 -41 26.5 -70.5t79.5 -29.5h115v-93z" />
    <glyph glyph-name="uni06C3" unicode="&#x6c3;" horiz-adv-x="876" 
d="M387 651q-51 0 -94 -23.5t-74 -62.5t-48 -90t-17 -108q0 -55 18 -95.5t50 -66t74 -36.5t89 -11q43 0 85 9t75 32.5t53 61.5t20 97q0 68 -19 121t-51 92t-74 59.5t-87 20.5zM0 350q0 82 26.5 165t78 150.5t124 109.5t164.5 42q80 0 148.5 -31.5t121 -92t82 -146.5
t29.5 -197q0 -68 -21.5 -132t-69.5 -114.5t-123 -82t-179 -31.5q-86 0 -155.5 21.5t-120 66.5t-78 112.5t-27.5 159.5zM131 1133q0 45 32 76.5t77 31.5t76.5 -31.5t31.5 -76.5t-31.5 -77t-76.5 -32t-77 32t-32 77zM397 1133q0 45 32 76.5t77 31.5t76.5 -31.5t31.5 -76.5
t-31.5 -77t-76.5 -32t-77 32t-32 77z" />
    <glyph glyph-name="uni06CC" unicode="&#x6cc;" horiz-adv-x="1505" 
d="M166 55q0 -80 25.5 -146.5t86 -114.5t160 -74.5t246.5 -26.5q106 0 203.5 15.5t172.5 44t119 70.5t44 95q0 47 -31 79t-117 75q-61 31 -113.5 63.5t-90 72.5t-60.5 90t-23 118q0 78 28 157.5t84 144t140 104.5t199 40q68 0 120 -15.5t60 -19.5v-172q-41 12 -89 20.5
t-95 8.5q-68 0 -120 -21.5t-86 -56.5t-51 -78t-17 -86q0 -41 15 -70.5t41.5 -54t61.5 -45t76 -43.5q70 -39 117 -71.5t74.5 -63.5t40 -62.5t12.5 -68.5q0 -86 -39 -166t-125 -141.5t-222 -99t-329 -37.5t-324 37.5t-210.5 104.5t-114.5 158t-35 199v306h166v-269z" />
    <glyph glyph-name="afii57519" unicode="&#x6d2;" horiz-adv-x="1648" 
d="M723 778q-14 -113 -33.5 -175t-55.5 -96t-91.5 -51.5t-141.5 -37.5q-139 -33 -193 -72t-54 -88q0 -80 150.5 -106.5t420.5 -26.5q115 0 242 7t245.5 19.5t220 27t164.5 28.5v-172q-100 -23 -217.5 -38t-236.5 -24.5t-231.5 -13.5t-200.5 -4q-178 0 -311.5 12.5t-222.5 43
t-133 86t-44 141.5q0 131 99.5 205.5t262.5 115.5q61 14 99.5 27.5t60 35t31.5 58.5t18 98h152z" />
    <glyph glyph-name="uni06D3" unicode="&#x6d3;" horiz-adv-x="1648" 
d="M723 778q-14 -113 -33.5 -175t-55.5 -96t-91.5 -51.5t-141.5 -37.5q-139 -33 -193 -72t-54 -88q0 -80 150.5 -106.5t420.5 -26.5q115 0 242 7t245.5 19.5t220 27t164.5 28.5v-172q-100 -23 -217.5 -38t-236.5 -24.5t-231.5 -13.5t-200.5 -4q-178 0 -311.5 12.5t-222.5 43
t-133 86t-44 141.5q0 131 99.5 205.5t262.5 115.5q61 14 99.5 27.5t60 35t31.5 58.5t18 98h152zM459 835h-375v93h92q-29 47 -29 104q0 90 53.5 136t121.5 46q35 0 60.5 -4t37.5 -14v-94q-41 18 -88 18q-49 0 -71.5 -28.5t-22.5 -63.5q0 -41 26.5 -70.5t79.5 -29.5h115v-93z
" />
    <glyph glyph-name="uni06D4" unicode="&#x6d4;" horiz-adv-x="573" 
d="M487 0h-243q-43 0 -76 9t-55.5 31.5t-34.5 63.5t-17 105q43 -20 100.5 -29.5t110.5 -9.5h215v-170z" />
    <glyph glyph-name="afii57534" unicode="&#x6d5;" horiz-adv-x="876" 
d="M387 651q-51 0 -94 -23.5t-74 -62.5t-48 -90t-17 -108q0 -55 18 -95.5t50 -66t74 -36.5t89 -11q43 0 85 9t75 32.5t53 61.5t20 97q0 68 -19 121t-51 92t-74 59.5t-87 20.5zM0 350q0 82 26.5 165t78 150.5t124 109.5t164.5 42q80 0 148.5 -31.5t121 -92t82 -146.5
t29.5 -197q0 -68 -21.5 -132t-69.5 -114.5t-123 -82t-179 -31.5q-86 0 -155.5 21.5t-120 66.5t-78 112.5t-27.5 159.5z" />
    <glyph glyph-name="uni06F0" unicode="&#x6f0;" horiz-adv-x="1067" 
d="M428 412q0 -72 74 -72q72 0 71 72q0 74 -71 73q-74 1 -74 -73zM328 240q-72 70 -72 172t72 174q72 74 174 73q102 0 174 -73q72 -72 72 -174t-72 -172q-72 -74 -174 -74q-100 0 -174 74z" />
    <glyph glyph-name="uni06F1" unicode="&#x6f1;" horiz-adv-x="1064" 
d="M548 1462v-1462h-174v1462h174z" />
    <glyph glyph-name="uni06F2" unicode="&#x6f2;" horiz-adv-x="1064" 
d="M809 1464v-438q0 -172 -86 -235q-59 -45 -189 -46h-127q-84 0 -102 7v-752h-172v1464h172v-446q0 -59 20 -80q18 -20 84 -20h125q63 0 84 20q18 18 19 80v446h172z" />
    <glyph glyph-name="uni06F3" unicode="&#x6f3;" horiz-adv-x="1202" 
d="M991 1462v-438q0 -172 -88 -236q-59 -45 -188 -45h-33q-139 0 -188 45q-45 -45 -189 -45h-18q-86 0 -102 7v-750h-172v1462h172v-446q0 -59 20 -80q18 -18 84 -18h18q66 0 84 18q16 18 17 80v446h174v-446q0 -59 18 -80q18 -18 84 -18h31q66 0 84 18t18 80v446h174z" />
    <glyph glyph-name="uni06F4" unicode="&#x6f4;" horiz-adv-x="1089" 
d="M1038 1176q-158 109 -307 112q-68 2 -110.5 -39t-53.5 -104q-12 -197 15 -213q23 -16 163 -17h304v-172h-545q-145 2 -158 2q-39 0 -92 7l-2 -752h-172v1462h172v-446q0 -66 67 -84q29 -10 72 -10q-8 25 -8 127q0 217 121 327q92 86 223 86h12q150 0 299 -96v-190z" />
    <glyph glyph-name="uni06F5" unicode="&#x6f5;" horiz-adv-x="1200" 
d="M918 186q74 51 53 201q-55 412 -377 795q-283 -326 -344 -795q-20 -150 51 -201q70 -47 162 0q61 33 61 80v322h170v-322q0 -47 62 -80q94 -47 162 0zM1139 410q35 -254 -123 -363q-74 -51 -172 -51q-86 0 -166 39q-49 27 -68 47q-18 -20 -69 -47q-78 -39 -164 -39
q-98 0 -174 51q-156 109 -121 363q68 535 397 901q-18 23 -51 45l117 129q514 -475 594 -1075z" />
    <glyph glyph-name="uni06F6" unicode="&#x6f6;" horiz-adv-x="1083" 
d="M182 -14l-141 120l436 508q-37 14 -100 72l-21 16q-182 158 -186 338q-2 139 90 248l10 10q109 125 293 181l156 -138q-231 -76 -307 -163l-6 -9q-45 -51 -41 -127q2 -100 106 -196q90 -76 125 -66q33 8 135 127l217 252l139 -123z" />
    <glyph glyph-name="uni06F7" unicode="&#x6f7;" horiz-adv-x="1200" 
d="M1026 1462l-426 -1462h-174l-424 1462h178l332 -1173l327 1173h187z" />
    <glyph glyph-name="uni06F8" unicode="&#x6f8;" horiz-adv-x="1200" 
d="M848 0l-327 1171l-332 -1171h-178l424 1462h174l426 -1462h-187z" />
    <glyph glyph-name="uni06F9" unicode="&#x6f9;" horiz-adv-x="1064" 
d="M696 1149q0 70 -47 108q-47 39 -125 39q-231 0 -231 -194q0 -115 61 -158q109 -74 342 -4v209zM762 1384q115 -92 115 -249v-1135h-181v739q-276 -72 -444 43q-139 96 -139 305q0 174 131 279q119 96 280 96q144 0 238 -78z" />
    <glyph glyph-name="uni2000" unicode="&#x2000;" horiz-adv-x="1422" 
 />
    <glyph glyph-name="uni2001" unicode="&#x2001;" horiz-adv-x="2845" 
 />
    <glyph glyph-name="uni2002" unicode="&#x2002;" horiz-adv-x="1024" 
 />
    <glyph glyph-name="uni2003" unicode="&#x2003;" horiz-adv-x="2048" 
 />
    <glyph glyph-name="uni2004" unicode="&#x2004;" horiz-adv-x="948" 
 />
    <glyph glyph-name="uni2005" unicode="&#x2005;" horiz-adv-x="711" 
 />
    <glyph glyph-name="uni2006" unicode="&#x2006;" horiz-adv-x="474" 
 />
    <glyph glyph-name="uni2007" unicode="&#x2007;" horiz-adv-x="474" 
 />
    <glyph glyph-name="uni2008" unicode="&#x2008;" horiz-adv-x="355" 
 />
    <glyph glyph-name="uni2009" unicode="&#x2009;" horiz-adv-x="204" 
 />
    <glyph glyph-name="uni200A" unicode="&#x200a;" horiz-adv-x="40" 
 />
    <glyph glyph-name="afii61664" unicode="&#x200c;" horiz-adv-x="67" 
d="M68 4h-68v2701h68v-2701z" />
    <glyph glyph-name="afii301" unicode="&#x200d;" horiz-adv-x="67" 
d="M160 2513l-92 94v-2607h-68v2613l-100 -100l-35 37l129 129l-129 131l35 35l131 -129l129 129l37 -35l-129 -129v-2l129 -129z" />
    <glyph glyph-name="afii299" unicode="&#x200e;" horiz-adv-x="65" 
d="M223 2513v125h-157v-2634h-66v2701h223v140l166 -166z" />
    <glyph glyph-name="afii300" unicode="&#x200f;" horiz-adv-x="67" 
d="M68 2705v-2701h-68v2634h-158v-125l-166 166l166 166v-140h226z" />
    <glyph glyph-name="uni2010" unicode="&#x2010;" horiz-adv-x="667" 
d="M86 698h545v-163h-545v163z" />
    <glyph glyph-name="uni2011" unicode="&#x2011;" horiz-adv-x="667" 
d="M86 698h545v-163h-545v163z" />
    <glyph glyph-name="figuredash" unicode="&#x2012;" horiz-adv-x="667" 
d="M86 698h545v-163h-545v163z" />
    <glyph glyph-name="endash" unicode="&#x2013;" horiz-adv-x="1024" 
d="M0 651h1024v-164h-1024v164z" />
    <glyph glyph-name="emdash" unicode="&#x2014;" horiz-adv-x="2048" 
d="M266 651h1516v-164h-1516v164z" />
    <glyph glyph-name="quoteleft" unicode="&#x2018;" horiz-adv-x="569" 
d="M399 934h-227v227q0 61 13.5 115.5t41 95.5t69.5 65.5t101 24.5v-102q-35 0 -57.5 -17.5t-36.5 -46t-19 -64.5t-5 -71h120v-227z" />
    <glyph glyph-name="quoteright" unicode="&#x2019;" horiz-adv-x="569" 
d="M170 1462h227v-227q0 -61 -13 -115.5t-41 -95.5t-71 -65.5t-100 -24.5v102q35 0 57.5 17.5t37 46t19.5 64.5t5 71h-121v227z" />
    <glyph glyph-name="quotesinglbase" unicode="&#x201a;" horiz-adv-x="569" 
d="M170 227h227v-227q0 -61 -13 -115.5t-41 -95.5t-71 -65.5t-100 -24.5v102q35 0 57.5 17.5t37 46.5t19.5 64.5t5 70.5h-121v227z" />
    <glyph glyph-name="quotedblleft" unicode="&#x201c;" horiz-adv-x="872" 
d="M737 934h-227v227q0 61 13.5 115.5t41 95.5t69.5 65.5t101 24.5v-102q-35 0 -57.5 -17.5t-36.5 -46t-19.5 -64.5t-5.5 -71h121v-227zM362 934h-227v227q0 61 13.5 115.5t41 95.5t69.5 65.5t101 24.5v-102q-35 0 -57 -17.5t-36.5 -46t-19.5 -64.5t-5 -71h120v-227z" />
    <glyph glyph-name="quotedblright" unicode="&#x201d;" horiz-adv-x="872" 
d="M510 1462h227v-227q0 -61 -13 -115.5t-41 -95.5t-71 -65.5t-100 -24.5v102q35 0 57.5 17.5t37 46t19.5 64.5t5 71h-121v227zM135 1462h227v-227q0 -61 -13 -115.5t-40.5 -95.5t-70.5 -65.5t-101 -24.5v102q35 0 57.5 17.5t37 46t19.5 64.5t5 71h-121v227z" />
    <glyph glyph-name="quotedblbase" unicode="&#x201e;" horiz-adv-x="872" 
d="M135 227h227v-227q0 -61 -13 -115.5t-40.5 -95.5t-70.5 -65.5t-101 -24.5v102q35 0 57.5 17.5t37 46.5t19.5 64.5t5 70.5h-121v227zM510 227h227v-227q0 -61 -13 -115.5t-41 -95.5t-71 -65.5t-100 -24.5v102q35 0 57.5 17.5t37 46.5t19.5 64.5t5 70.5h-121v227z" />
    <glyph glyph-name="dagger" unicode="&#x2020;" horiz-adv-x="1015" 
d="M446 915h-385v154h385v389h168v-389h387v-154h-387v-1177h-168v1177z" />
    <glyph glyph-name="daggerdbl" unicode="&#x2021;" horiz-adv-x="1015" 
d="M446 131h-385v150h385v634h-385v152h385v391h168v-391h387v-152h-387v-634h387v-150h-387v-393h-168v393z" />
    <glyph glyph-name="bullet" unicode="&#x2022;" horiz-adv-x="860" 
d="M221 948q92 92 223 92t224 -92q92 -94 92 -223q0 -131 -92 -223t-224 -92q-131 0 -223 92t-92 223q0 129 92 223z" />
    <glyph glyph-name="ellipsis" unicode="&#x2026;" horiz-adv-x="1409" 
d="M211 184q35 35 86 35t86 -35t35 -86t-35 -86t-86 -35t-86 35t-35 86t35 86zM631 184q35 35 86 35q49 0 84 -35t35 -86t-35 -86t-84 -35q-51 0 -86 35t-35 86t35 86zM1049 184q35 35 84 35q51 0 86 -35t34 -86q0 -51 -34 -86q-35 -35 -86 -35q-49 0 -84 35t-35 86t35 86z
" />
    <glyph glyph-name="uni202A" unicode="&#x202a;" horiz-adv-x="1024" 
 />
    <glyph glyph-name="uni202B" unicode="&#x202b;" horiz-adv-x="1024" 
 />
    <glyph glyph-name="afii61573" unicode="&#x202c;" horiz-adv-x="1024" 
 />
    <glyph glyph-name="afii61574" unicode="&#x202d;" horiz-adv-x="1024" 
 />
    <glyph glyph-name="afii61575" unicode="&#x202e;" horiz-adv-x="1024" 
 />
    <glyph glyph-name="uni202F" unicode="&#x202f;" horiz-adv-x="569" 
 />
    <glyph glyph-name="perthousand" unicode="&#x2030;" horiz-adv-x="2179" 
d="M621 758q-88 -111 -232 -111q-322 0 -321 408q0 182 88 293q90 111 233 110q150 0 236 -108q86 -109 86 -299q0 -182 -90 -293zM1395 94q-90 -111 -232 -110q-322 0 -321 407q0 182 88 293q90 111 233 111q150 0 236 -109q84 -109 84 -299q0 -182 -88 -293zM1159 635
q-152 0 -151 -244q0 -244 155 -244q156 0 156 240q0 248 -160 248zM1341 1466l-1026 -1626l-141 86l1028 1626zM387 1296q-154 0 -154 -241q0 -244 156 -244t156 240q0 245 -158 245zM2066 94q-88 -111 -231 -110q-319 0 -319 407q0 182 88 293t231 111q152 0 236 -109
t83 -299q0 -182 -88 -293zM1831 635q-152 0 -152 -244t156 -244t156 240q0 248 -160 248z" />
    <glyph glyph-name="guilsinglleft" unicode="&#x2039;" horiz-adv-x="518" 
d="M70 606l297 441l137 -84l-244 -357l244 -356l-137 -84z" />
    <glyph glyph-name="guilsinglright" unicode="&#x203a;" horiz-adv-x="520" 
d="M512 606l-297 -440l-137 84l244 356l-244 357l137 84z" />
    <glyph glyph-name="fraction" unicode="&#x2044;" horiz-adv-x="335" 
d="M604 1536l133 -82l-942 -1542l-131 82z" />
    <glyph glyph-name="uni205F" unicode="&#x205f;" horiz-adv-x="711" 
 />
    <glyph glyph-name="Euro" unicode="&#x20ac;" horiz-adv-x="1169" 
d="M178 1020q0 190 127 315q115 111 293 140q174 25 328 -41q168 -72 252 -246l-150 -76q-61 123 -174 170q-106 43 -229 27q-121 -18 -199 -92q-84 -78 -84 -197v-129h549l-31 -139h-518v-60h551l-27 -137h-524v-127q0 -123 84 -201q78 -72 201 -88q121 -16 229 31
q113 47 172 166l150 -74q-84 -174 -252 -246q-154 -68 -328 -43q-178 25 -293 136q-127 125 -127 319v127h-139l31 137h108v60h-133l31 139h102v129z" />
    <glyph glyph-name="afii61289" unicode="&#x2113;" horiz-adv-x="866" 
d="M881 244q-135 -268 -373 -269q-166 0 -254 127q-74 106 -76 289v-29l-16 -12q-35 -27 -78 -65l-64 116q70 61 158 152v549q0 260 94 389q80 109 209 108q123 0 191 -100q59 -92 59 -239q0 -362 -395 -768v-48q2 -311 190 -311q147 0 236 205zM336 707q242 283 242 546
q0 190 -103 191q-53 0 -88 -64q-51 -86 -51 -268v-405z" />
    <glyph glyph-name="trademark" unicode="&#x2122;" horiz-adv-x="1665" 
d="M915 631h-151v829h160l239 -524l240 524h162v-829h-156l8 520l-194 -426h-119l-191 418zM453 631h-154v684h-260v145h674v-145h-260v-684z" />
    <glyph glyph-name="estimated" unicode="&#x212e;" horiz-adv-x="1771" 
d="M403 680q14 0 15 14v-399q0 -16 10 -31q201 -209 481 -209q301 0 514 244h183q-285 -332 -699 -332q-348 0 -592 221q-248 221 -247 537q0 313 247 537q244 221 592 221q346 0 594 -221q246 -221 246 -537v-45h-1344zM1401 1157q0 18 -15 33q-205 201 -477 201
q-276 0 -481 -207q-10 -14 -10 -33v-395q0 10 -15 10h1014q-16 0 -16 -10v401z" />
    <glyph glyph-name="partialdiff" unicode="&#x2202;" horiz-adv-x="987" 
d="M123 1430q154 121 338 120q205 0 342 -184q150 -203 149 -565q0 -367 -125 -588q-135 -238 -383 -238q-182 0 -286 144q-92 127 -92 319q0 227 129 375q125 141 299 141q236 0 331 -180h-34q16 248 -84 438q-96 184 -256 185q-135 0 -261 -103zM449 133q125 0 221 139
q98 145 102 336q-23 66 -96 127q-84 68 -176 68q-109 0 -189 -105q-82 -106 -82 -256q0 -143 62 -227q59 -82 155 -82h3z" />
    <glyph glyph-name="uni2206" unicode="&#x2206;" horiz-adv-x="1214" 
d="M61 104l490 1389h166l485 -1387v-116h-1141v114zM995 150l-379 1110h27l-387 -1110h739z" />
    <glyph glyph-name="product" unicode="&#x220f;" horiz-adv-x="1306" 
d="M1096 1300v-1452h-164v1452h-512v-1452h-162v1452h-207v160h1254v-160h-209z" />
    <glyph glyph-name="summation" unicode="&#x2211;" horiz-adv-x="1046" 
d="M45 -186v116l530 701l-505 708v117h948v-153h-737v24l487 -690l-520 -694v22h803v-151h-1006z" />
    <glyph glyph-name="minus" unicode="&#x2212;" horiz-adv-x="1228" 
d="M98 588h1032v-139h-1032v139z" />
    <glyph glyph-name="radical" unicode="&#x221a;" horiz-adv-x="1081" 
d="M705 -319h-146l-297 925l-141 -51l-55 145l296 115l254 -817l353 1720h166z" />
    <glyph glyph-name="infinity" unicode="&#x221e;" horiz-adv-x="1470" 
d="M1436 600q0 -145 -99 -240q-94 -90 -225 -90q-158 0 -346 207q-190 -207 -358 -207q-131 0 -224 95q-92 94 -92 229q0 143 94 237q92 94 236 95q166 0 348 -209l-12 -19q205 227 370 228q137 -2 224 -92q84 -90 84 -232v-2zM422 424q90 0 242 162l8 10q-147 176 -266 176
q-72 0 -115 -51q-41 -51 -41 -129q2 -72 47 -119q47 -49 123 -49h2zM1116 772q-92 0 -233 -154l-17 -18q168 -176 254 -176q72 0 115 51q41 49 41 119q0 86 -45 133q-43 45 -113 45h-2z" />
    <glyph glyph-name="integral" unicode="&#x222b;" horiz-adv-x="655" 
d="M651 1577q-117 72 -172 29q-55 -47 -55 -170l14 -721q12 -543 13 -729q0 -197 -138 -277q-125 -72 -295 4l37 135q117 -49 176 -4t60 144q0 162 -12 733t-13 727q0 209 135 291q129 80 285 -19z" />
    <glyph glyph-name="approxequal" unicode="&#x2248;" horiz-adv-x="1079" 
d="M1012 762q-104 -164 -248 -164q-92 0 -238 86q-102 59 -157 59q-68 0 -146 -110l-112 92q115 168 268 168q86 0 201 -68l59 -32q76 -43 133 -43q59 0 133 102zM1012 469q-106 -162 -248 -162q-86 0 -240 86q-106 59 -155 60q-72 0 -144 -107l-114 90q113 170 268 170
q80 0 203 -67l43 -25q86 -53 147 -53q59 0 127 94z" />
    <glyph glyph-name="notequal" unicode="&#x2260;" horiz-adv-x="1058" 
d="M739 846h283v-156h-348q-66 -147 -92 -205h440v-153h-506q-10 -23 -47 -101l-61 -135l-134 66l80 170h-266v153h334q66 150 92 205h-426v156h494l106 229l131 -59z" />
    <glyph glyph-name="lessequal" unicode="&#x2264;" horiz-adv-x="935" 
d="M74 106v154h809v-154h-809zM856 1057l-549 -305l549 -301v-183l-754 424v119l754 430v-184z" />
    <glyph glyph-name="greaterequal" unicode="&#x2265;" horiz-adv-x="946" 
d="M98 106v154h809v-154h-809zM125 1241l754 -430v-119l-754 -424v183l549 301l-549 305v184z" />
    <glyph glyph-name="lozenge" unicode="&#x25ca;" horiz-adv-x="1097" 
d="M641 -74h-149l-441 801l449 803h147l443 -801zM584 1278q-16 33 -15 27q10 29 -18 -27l-305 -547l311 -559q14 -29 12 -18q-8 -20 15 18l313 555z" />
    <glyph glyph-name="uni25CC" unicode="&#x25cc;" horiz-adv-x="1865" 
d="M991 1374q0 -25 -16.5 -41t-40.5 -16q-23 0 -40 16.5t-17 40.5q0 23 17 40.5t40 17.5q25 0 41 -17.5t16 -40.5zM1251 1319q0 -23 -16 -40t-41 -17q-23 0 -40 17t-17 40q0 25 17 41t40 16q25 0 41 -16t16 -41zM1466 1174q0 -23 -16 -40.5t-41 -17.5t-41 17.5t-16 40.5
q0 25 16 42t41 17t41 -17t16 -42zM1610 956q0 -23 -16.5 -40t-41.5 -17q-23 0 -40 17.5t-17 39.5q0 25 17.5 41.5t39.5 16.5q25 0 41.5 -16.5t16.5 -41.5zM1661 705q0 -25 -16.5 -41.5t-40.5 -16.5q-23 0 -40.5 16.5t-17.5 41.5q0 23 17.5 40t40.5 17q25 0 41 -17t16 -40z
M1610 444q0 -25 -16.5 -41t-41.5 -16q-23 0 -40 16.5t-17 40.5q0 23 17.5 40.5t39.5 17.5q25 0 41.5 -17.5t16.5 -40.5zM1466 229q0 -23 -16 -40t-41 -17t-41 17.5t-16 39.5q0 23 16 40.5t41 17.5t41 -17.5t16 -40.5zM1245 82q0 -23 -16.5 -40t-40.5 -17q-23 0 -40.5 17
t-17.5 40q0 25 17.5 41t40.5 16q25 0 41 -16t16 -41zM991 35q0 -25 -16.5 -42.5t-40.5 -17.5q-23 0 -40 17.5t-17 42.5q0 23 17 40t40 17q25 0 41 -17t16 -40zM733 86q0 -25 -17.5 -41t-39.5 -16q-25 0 -41.5 16t-16.5 41q0 23 16.5 40t41.5 17q23 0 40 -17t17 -40zM518 229
q0 -23 -16.5 -40t-40.5 -17q-25 0 -41.5 17.5t-16.5 39.5q0 23 16.5 40.5t41.5 17.5t41 -17.5t16 -40.5zM371 451q0 -25 -17.5 -41.5t-40.5 -16.5q-25 0 -41 16.5t-16 41.5q0 23 16.5 40t40.5 17q23 0 40.5 -17t17.5 -40zM319 705q0 -25 -16 -41.5t-41 -16.5t-41 16.5
t-16 41.5q0 23 16.5 40t40.5 17q25 0 41 -17t16 -40zM373 965q0 -25 -16.5 -41.5t-41.5 -16.5q-23 0 -40 16.5t-17 41.5q0 23 17.5 40t39.5 17q25 0 41.5 -17t16.5 -40zM518 1174q0 -23 -16.5 -40.5t-40.5 -17.5q-25 0 -41.5 17.5t-16.5 40.5q0 25 16.5 42t41.5 17t41 -17
t16 -42zM739 1323q0 -25 -17 -41t-40 -16q-25 0 -41 16t-16 41q0 23 16 40t41 17q23 0 40 -17t17 -40z" />
    <glyph glyph-name="uni25FC" unicode="&#x25fc;" horiz-adv-x="1075" 
d="M0 1075h1075v-1075h-1075v1075z" />
    <glyph glyph-name="uni274A" unicode="&#x274a;" horiz-adv-x="659" 
d="M526 1040l-75 -55l-111 178l-107 -178l-75 55l135 160l-205 47l29 88l194 -78l-18 209h94l-16 -209l194 82l29 -90l-205 -49z" />
    <glyph glyph-name="uniFB01" unicode="&#xfb01;" horiz-adv-x="958" 
d="M526 1307q-121 0 -180 -52q-59 -55 -59 -149v-209h225v-160h-225v-747h-160v1116q0 172 111 270q100 90 288 90v-159zM682 1389q33 35 82 34q47 0 80 -34q35 -33 35 -80t-35 -82q-33 -33 -80 -33q-49 0 -82 33q-33 35 -33 82t33 80zM848 1077v-1087h-162v1087h162z" />
    <glyph glyph-name="uniFB02" unicode="&#xfb02;" horiz-adv-x="1007" 
d="M526 1307q-121 0 -180 -52q-59 -55 -59 -149v-209h225v-160h-225v-747h-160v1116q0 172 111 270q100 90 288 90v-159zM1036 -18q-186 0 -276 94q-88 94 -88 260v1124h159v-1124q0 -193 205 -193v-161z" />
    <glyph glyph-name="uniFD3E" unicode="&#xfd3e;" horiz-adv-x="1251" 
d="M1022 567q0 18 -41 41q-20 10 -41.5 19.5t-48.5 13.5v117l-156 -117l2 -4h88v-43q43 -6 70 -27q-27 -18 -70 -24v-41h-90l-6 -4l162 -119v117q131 36 131 71zM676 571q0 45 -31 77t-76 32t-75.5 -31t-30.5 -76t31 -75q31 -33 75 -33q45 0 76 31.5t31 74.5zM399 494v4h-96
v45q-31 6 -63 24q25 18 63 25v41h96v4l-157 123v-119q-133 -43 -133 -72q0 -41 133 -75v-115zM762 248l-125 129v-60h-47v-67h-4l-39 67h-49v66l-107 -152l141 33q8 -35 23.5 -80t37 -91t48.5 -88t57 -73v97q-35 76 -49 129t-24 108l131 -24zM444 670q27 0 27 22
q0 14 -18 37l-127 176q-12 18 -13 31q0 23 25 22q10 0 12 -2l150 -26q16 63 56 136t91 142.5t109.5 133t112 112.5t96.5 78t63 29q12 0 16 -11q0 -2 1.5 -4t1.5 -4q0 -12 -13 -26q-141 -150 -233 -300.5t-107 -287.5l103 14q4 0 12 1t10 1q23 0 23 -20q0 -8 -13 -27
l-139 -158q-25 -29 -24 -43q0 -18 22 -18q8 0 33 10l164 123q27 20 39 20q14 0 18 -28v-125q16 -6 39 -16.5t44.5 -24.5t35.5 -31.5t14 -38.5q0 -53 -133 -112v-117q0 -43 -18 -43q-10 0 -31 16l-172 131q-16 12 -35 13q-23 0 -22 -21q0 -14 24 -41l139 -157q12 -18 13 -27
q0 -20 -23 -21q-2 0 -10 1t-12 1l-103 15q14 -137 106.5 -285.5t233.5 -302.5q12 -12 12 -27q0 -2 -1 -4t-1 -4q-4 -10 -16 -10q-20 0 -63 28.5t-96.5 78t-112 113t-109.5 133t-91 141t-56 137.5l-150 -27q-2 -2 -12 -2q-25 0 -25 23q0 12 13 30l127 176q18 25 18 35
q0 27 -23 27q-18 0 -45 -27l-147 -127q-27 -20 -39 -20q-29 0 -29 51v115q-131 49 -131 108q0 49 131 113v127q0 41 29 41q10 0 33 -19l164 -141q22 -16 32 -16zM758 891l-131 -25q10 55 24.5 108.5t48.5 129.5v96q-31 -31 -57.5 -73t-48 -88t-36.5 -91t-23 -80l-142 33
l107 -151v65h49l39 68h4v-68h47v-59l125 129z" />
    <glyph glyph-name="uniFD3F" unicode="&#xfd3f;" horiz-adv-x="1251" 
d="M225 567q0 -35 131 -71v-117l162 119l-6 4h-90v41q-43 6 -70 24q27 20 70 27v43h88l2 4l-156 117v-117q-27 -4 -48 -13.5t-44 -19.5q-39 -21 -39 -41zM571 571q0 -43 31 -74.5t76 -31.5q43 0 76 33q31 31 30 75q0 45 -30.5 76t-75.5 31t-76 -32t-31 -77zM1006 379v115
q133 35 133 75q0 29 -133 72v119l-158 -123v-4h96v-41q39 -6 64 -25q-33 -18 -64 -24v-45h-96v-4zM492 242l131 24q-10 -55 -24.5 -108.5t-49.5 -128.5v-97q31 31 56.5 73t47 88t37 91t25.5 80l141 -33l-106 152v-66h-50l-38 -67h-5v67h-47v60l-125 -129zM803 670
q10 0 33 16l163 141q20 18 33 19q29 0 29 -41v-127q131 -63 131 -113q0 -59 -131 -108v-115q0 -51 -29 -51q-12 0 -39 20l-147 127q-27 27 -45 27q-23 0 -23 -27q0 -10 19 -35l127 -176q12 -18 12 -30q0 -23 -25 -23q-10 0 -12 2l-149 27q-16 -63 -56.5 -136t-92.5 -142.5
t-110.5 -133t-111.5 -113t-95 -78t-63 -28.5q-12 0 -16 10q0 2 -1 4t-1 4q0 14 12 27q141 154 233.5 302.5t106.5 285.5l-102 -15q-4 0 -7.5 -1t-7.5 -1h-8q-23 0 -22 21q0 8 12 27l139 157q25 27 25 41q0 20 -23 21q-20 0 -35 -13l-172 -131q-20 -16 -30 -16q-18 0 -19 43
v117q-133 59 -133 112q0 20 14.5 38t35 32t44 24.5t39.5 16.5v125q4 29 19 28q12 0 38 -20l164 -123q25 -10 33 -10q23 0 23 18q0 14 -25 43l-139 158q-12 18 -12 27q0 20 22 20q2 -2 8 -2h15l102 -14q-14 137 -106.5 287.5t-233.5 300.5q-12 14 -12 26q0 2 1 4t1 4
q4 10 16 11q20 0 62.5 -29t95.5 -78t111.5 -112.5t110.5 -133t92 -142.5t57 -136l149 26q2 2 12 2q25 0 25 -22q0 -12 -12 -31l-127 -176q-18 -23 -19 -37q0 -22 27 -22zM483 885l125 -129v59h47v68h4l39 -68h50v-65l106 151l-141 -33q-10 35 -25.5 80t-37 91t-47 88
t-56.5 73v-96q35 -76 49 -129t25 -109l-132 25z" />
    <glyph glyph-name="glyph151" horiz-adv-x="1138" 
d="M1008 0h-164v168h-4q-109 -193 -344 -193q-66 0 -113 18.5t-74 59.5h-4v-459h-174v1465h174v-717q0 -98 57.5 -155.5t157.5 -57.5q80 0 138.5 24.5t97.5 69.5t58.5 105.5t19.5 132.5v598h174v-1059z" />
    <glyph glyph-name="glyph159" horiz-adv-x="1509" 
d="M412 117q-309 250 -310 655q0 313 205 512q199 190 498 191q299 0 491 -203q188 -199 189 -492q0 -432 -305 -663v30h331v-157h-585v112q180 104 282 273q111 184 111 405q0 209 -137 367q-150 174 -381 174t-381 -158q-150 -156 -150 -395q0 -406 402 -668v-110h-594
v157h334v-30z" />
    <glyph glyph-name="glyph441" horiz-adv-x="235" 
d="M0 0q-82 0 -82 82q0 51 19.5 69.5t62.5 18.5h238q82 0 81 -82q0 -51 -19 -69.5t-62 -18.5h-238z" />
    <glyph glyph-name="glyph442" horiz-adv-x="401" 
d="M0 0q-82 0 -82 82q0 51 19.5 69.5t62.5 18.5h403q82 0 82 -82q0 -51 -19.5 -69.5t-62.5 -18.5h-403z" />
    <glyph glyph-name="glyph457" 
d="M412 1038v39q0 43 -19.5 76t-75.5 33q-57 0 -105 -44t-71 -104h271zM137 1165q80 109 193 109q76 0 119 -48t43 -134v-140h-533v86h96v424h82v-297z" />
    <glyph glyph-name="afii57452_afii57457.ccmp" horiz-adv-x="251" 
d="M10 1483q-25 -41 -61.5 -51.5t-59.5 -10.5q-145 0 -145 166v139h94v-127q0 -86 60 -86q23 0 43 15.5t20 68.5v93h94v-91q0 -53 20.5 -67t41.5 -14q37 0 47 19t10 56v133h94v-139q0 -86 -33.5 -126t-105.5 -40q-31 0 -62.5 13.5t-56.5 48.5zM139 2072q25 0 41 5t27 10v16
q0 53 -21.5 80.5t-54.5 27.5q-37 0 -55.5 -24.5t-18.5 -50.5q0 -37 31 -50.5t51 -13.5zM196 2009q-33 -16 -75 -17q-66 0 -106 38t-40 102q0 70 45 115.5t111 45.5t112 -45t46 -145q0 -76 -19.5 -127t-52.5 -82t-77 -44t-93 -13q-86 0 -138.5 37.5t-84.5 91.5l-125 -70
l-41 78l194 110q35 -74 80 -118.5t121 -44.5q61 0 97 26.5t46 61.5z" />
    <glyph glyph-name="afii57453_afii57457.ccmp" horiz-adv-x="251" 
d="M-17 1858q-25 -41 -61.5 -51.5t-59.5 -10.5q-145 0 -145 166v139h94v-127q0 -86 60 -86q23 0 43 15.5t20 68.5v93h94v-91q0 -53 20.5 -67t41.5 -14q37 0 47 19t10 56v133h94v-139q0 -86 -33.5 -126t-105.5 -40q-31 0 -62.5 13.5t-56.5 48.5zM244 1635l-492 -70v92l492 70
v-92zM240 1446l-492 -70v92l492 70v-92z" />
    <glyph glyph-name="afii57451_afii57457.ccmp" horiz-adv-x="251" 
d="M10 1483q-25 -41 -61.5 -51.5t-59.5 -10.5q-145 0 -145 166v139h94v-127q0 -86 60 -86q23 0 43 15.5t20 68.5v93h94v-91q0 -53 20.5 -67t41.5 -14q37 0 47 19t10 56v133h94v-139q0 -86 -33.5 -126t-105.5 -40q-31 0 -62.5 13.5t-56.5 48.5zM246 2044l-492 -69v92l492 69
v-92zM246 1887l-492 -70v92l492 70v-92z" />
    <glyph glyph-name="afii57454_afii57457.ccmp" horiz-adv-x="251" 
d="M10 1483q-25 -41 -61.5 -51.5t-59.5 -10.5q-145 0 -145 166v139h94v-127q0 -86 60 -86q23 0 43 15.5t20 68.5v93h94v-91q0 -53 20.5 -67t41.5 -14q37 0 47 19t10 56v133h94v-139q0 -86 -33.5 -126t-105.5 -40q-31 0 -62.5 13.5t-56.5 48.5zM242 1887l-492 -70v92l492 70
v-92z" />
    <glyph glyph-name="afii57455_afii57457.ccmp" horiz-adv-x="251" 
d="M10 1483q-25 -41 -61.5 -51.5t-59.5 -10.5q-145 0 -145 166v139h94v-127q0 -86 60 -86q23 0 43 15.5t20 68.5v93h94v-91q0 -53 20.5 -67t41.5 -14q37 0 47 19t10 56v133h94v-139q0 -86 -33.5 -126t-105.5 -40q-31 0 -62.5 13.5t-56.5 48.5zM24 2060q25 0 41.5 5t26.5 10
v16q0 53 -21.5 80.5t-54.5 27.5q-37 0 -55.5 -24.5t-18.5 -50.5q0 -37 31 -50.5t51 -13.5zM82 1997q-33 -16 -76 -17q-66 0 -105.5 38t-39.5 102q0 70 45 115.5t110 45.5q66 0 112 -45t46 -145q0 -76 -19.5 -126t-53.5 -81t-82 -44t-103 -13q-53 0 -94 10v82q23 -4 51.5 -7
t42.5 -3q78 0 117 26.5t49 61.5z" />
    <glyph glyph-name="afii57456_afii57457.ccmp" horiz-adv-x="251" 
d="M0 1729q-25 -41 -61.5 -51.5t-59.5 -10.5q-145 0 -145 166v139h94v-127q0 -86 60 -86q23 0 43 15.5t20 68.5v93h94v-91q0 -53 20.5 -67t41.5 -14q37 0 47 19t10 56v133h94v-139q0 -86 -33.5 -126t-105.5 -40q-31 0 -62.5 13.5t-56.5 48.5zM246 1477l-492 -70v92l492 70
v-92z" />
    <glyph glyph-name="afii57457_uni0670.ccmp" horiz-adv-x="251" 
d="M10 1483q-25 -41 -61.5 -51.5t-59.5 -10.5q-145 0 -145 166v139h94v-127q0 -86 60 -86q23 0 43 15.5t20 68.5v93h94v-91q0 -53 20.5 -67t41.5 -14q37 0 47 19t10 56v133h94v-139q0 -86 -33.5 -126t-105.5 -40q-31 0 -62.5 13.5t-56.5 48.5zM-41 2213h96v-411h-96v411z
" />
    <glyph glyph-name="afii57451_uni0654.ccmp" horiz-adv-x="720" 
d="M160 1513h-375v93h92q-29 47 -29 104q0 90 53.5 136t121.5 46q35 0 60.5 -4t37.5 -14v-94q-41 18 -88 18q-49 0 -71.5 -28.5t-22.5 -63.5q0 -41 26.5 -70.5t79.5 -29.5h115v-93zM244 2207l-492 -69v92l492 69v-92zM244 2050l-492 -70v92l492 70v-92z" />
    <glyph glyph-name="afii57454_uni0654.ccmp" horiz-adv-x="720" 
d="M160 1513h-375v93h92q-29 47 -29 104q0 90 53.5 136t121.5 46q35 0 60.5 -4t37.5 -14v-94q-41 18 -88 18q-49 0 -71.5 -28.5t-22.5 -63.5q0 -41 26.5 -70.5t79.5 -29.5h115v-93zM246 2050l-492 -70v92l492 70v-92z" />
    <glyph glyph-name="afii57452_uni0654.ccmp" horiz-adv-x="720" 
d="M160 1513h-375v93h92q-29 47 -29 104q0 90 53.5 136t121.5 46q35 0 60.5 -4t37.5 -14v-94q-41 18 -88 18q-49 0 -71.5 -28.5t-22.5 -63.5q0 -41 26.5 -70.5t79.5 -29.5h115v-93zM117 2244q25 0 41 5t27 10v16q0 53 -21.5 80.5t-54.5 27.5q-37 0 -55.5 -24.5t-18.5 -50.5
q0 -37 31 -50.5t51 -13.5zM174 2181q-33 -16 -75 -17q-66 0 -106 38t-40 102q0 70 45 115.5t111 45.5t112 -45t46 -145q0 -76 -19.5 -127t-52.5 -82t-77 -44t-93 -13q-86 0 -138.5 37.5t-84.5 91.5l-125 -70l-41 78l194 110q35 -74 80 -118.5t121 -44.5q61 0 97 26.5
t46 61.5z" />
    <glyph glyph-name="afii57455_uni0654.ccmp" horiz-adv-x="720" 
d="M160 1513h-375v93h92q-29 47 -29 104q0 90 53.5 136t121.5 46q35 0 60.5 -4t37.5 -14v-94q-41 18 -88 18q-49 0 -71.5 -28.5t-22.5 -63.5q0 -41 26.5 -70.5t79.5 -29.5h115v-93zM24 2244q25 0 41.5 5t26.5 10v16q0 53 -21.5 80.5t-54.5 27.5q-37 0 -55.5 -24.5
t-18.5 -50.5q0 -37 31 -50.5t51 -13.5zM82 2181q-33 -16 -76 -17q-66 0 -105.5 38t-39.5 102q0 70 45 115.5t110 45.5q66 0 112 -45t46 -145q0 -76 -19.5 -126t-53.5 -81t-82 -44t-103 -13q-53 0 -94 10v82q23 -4 51.5 -7t42.5 -3q78 0 117 26.5t49 61.5z" />
    <glyph glyph-name="afii57458_uni0654.ccmp" horiz-adv-x="720" 
d="M160 1513h-375v93h92q-29 47 -29 104q0 90 53.5 136t121.5 46q35 0 60.5 -4t37.5 -14v-94q-41 18 -88 18q-49 0 -71.5 -28.5t-22.5 -63.5q0 -41 26.5 -70.5t79.5 -29.5h115v-93zM-164 2172q0 68 47 116t115 48t116 -48t48 -116t-48 -114.5t-116 -46.5t-115 46.5
t-47 114.5zM-90 2175q0 -37 26.5 -64t63.5 -27t63.5 27t26.5 64t-26.5 63.5t-63.5 26.5t-63.5 -26.5t-26.5 -63.5z" />
    <glyph glyph-name="afii57456_uni0655.ccmp" horiz-adv-x="720" 
d="M160 -510h-375v94h92q-29 47 -29 103q0 92 53.5 138t121.5 46q35 0 60.5 -4t37.5 -14v-97q-41 18 -88 19q-49 0 -71.5 -29t-22.5 -63q0 -41 26.5 -70t79.5 -29h115v-94zM246 -712l-492 -70v92l492 70v-92z" />
    <glyph glyph-name="afii57453_uni0655.ccmp" horiz-adv-x="720" 
d="M160 -510h-375v94h92q-29 47 -29 103q0 92 53.5 138t121.5 46q35 0 60.5 -4t37.5 -14v-97q-41 18 -88 19q-49 0 -71.5 -29t-22.5 -63q0 -41 26.5 -70t79.5 -29h115v-94zM248 -710l-492 -70v92l492 70v-92zM248 -868l-492 -70v92l492 70v-92z" />
    <glyph glyph-name="uniFEDF_uniFEE0_uniFEEA.dlig" horiz-adv-x="2230" 
d="M879 0q-104 0 -178 36t-103 134q-45 -6 -98.5 -9t-87.5 -3q-190 0 -301 80.5t-111 222.5q0 104 50 182t132 130t187.5 79t216.5 27v118h168v-669q0 -86 26.5 -122t118.5 -36h199q37 0 65.5 4t48 19.5t30.5 45t11 80.5v1143h168v-1067q0 -104 40 -164.5t126 -60.5h332
v1292h168v-1462h-500q-76 0 -121 39t-61 94q-37 -84 -118 -108.5t-208 -24.5h-200zM168 477q0 -35 14.5 -64.5t47 -52t86 -35t130.5 -12.5q20 0 63.5 3t76.5 10v401q-190 -8 -304 -70.5t-114 -179.5z" />
    <glyph glyph-name="uniFDFA.locl" horiz-adv-x="2164" 
d="M903 895q39 14 63.5 23.5t37 19.5t16.5 22.5t4 32.5q0 25 -11.5 59.5t-27.5 74.5t-37.5 81t-42.5 78l19 72q4 16 12 16t22 -28l127 -269q18 -41 34 -66.5t39.5 -40t61 -19.5t101.5 -5q100 0 142 16.5t55 32.5q10 14 2 35q-4 14 8 14q10 0 20.5 -16t24.5 -34.5t35.5 -35
t56.5 -16.5q55 68 111.5 105.5t109.5 37.5q43 0 73 -20.5t58 -85.5q8 -16 13.5 -25.5t15.5 -13.5l-21 -68q-4 -16 -19 -19t-34 -5l-223 -10h-25h-42.5t-34.5 4q-29 -43 -42.5 -60.5t-21.5 -17.5t-4 17.5t29 68.5q-18 14 -42 43t-34 68h-4q-6 -29 -17.5 -49.5t-37 -34
t-71.5 -20.5t-122 -7q-51 0 -87 5t-60.5 18.5t-40 37t-25.5 60.5h-4q-6 -25 -22.5 -47.5t-30.5 -32.5v-4q25 0 57.5 -12.5t32.5 -26.5l-21 -74q-70 -55 -144.5 -88t-141.5 -33q-98 0 -152.5 60.5t-46.5 201.5q-45 10 -92 91q-27 -102 -92 -103q-45 0 -72 21.5t-49 68.5
q-43 -31 -78 -40t-58.5 -6t-37 14.5t-13.5 21.5q0 33 13.5 59.5t29.5 36.5q45 27 55.5 35t10.5 21q0 6 -5 16t-22 27l13 59q4 23 12 23q14 0 36.5 -37t71.5 -148q14 -33 40 -49t50.5 -18t43 7t18.5 25q0 10 -9 33t-22.5 48.5t-30 53t-30.5 48.5l16 51q8 23 19 22q4 0 14 -16
t23.5 -41t29 -53.5t27.5 -52.5q37 -74 65.5 -97.5t57.5 -23.5l39 6q-59 72 -93 116t-51.5 70.5t-21.5 42t-4 27.5q0 23 11 52.5t23 29.5q8 0 21 -25q4 -16 25.5 -40.5t44.5 -41.5q25 -23 24 -26q0 -14 -41 -15q27 -37 47.5 -66.5t33.5 -57t20.5 -55.5t7.5 -62
q0 -39 -33 -51.5t-64 -2.5q2 -39 24 -69.5t52.5 -51t64.5 -30.5t62 -8q45 2 96.5 13t102.5 34v8q-72 6 -104.5 14t-41.5 15zM356 182q10 31 15 31q4 0 13 -12.5t24 -46.5l92 -203q14 -33 36.5 -56.5t59.5 -38t91 -21.5t132 -7q193 0 314.5 15.5t190.5 33t95.5 32.5t30.5 15
q6 0 17.5 -9t25.5 -20.5t30.5 -20.5t35.5 -9l26 4q0 49 5 70.5t14 21.5q8 0 8 -14q0 -29 25.5 -57.5t70.5 -28.5l-37 53q4 27 11.5 45t15.5 18t19.5 -11t20.5 -28.5t15 -37t6 -33.5q0 -41 -14 -65.5t-35.5 -33t-46.5 -1t-43 27.5q-18 -25 -42 -31t-47.5 1.5t-45 24.5
t-35.5 38q-35 -20 -103.5 -38.5t-154.5 -33t-183.5 -22.5t-191.5 -8q-86 0 -145.5 7t-99.5 23.5t-64.5 43t-38.5 65.5h-4q-8 -29 -26.5 -52.5t-45.5 -23.5q-16 -51 -35.5 -74.5t-48.5 -23.5q-23 0 -43 18.5t-24 69.5h-4q-12 -25 -38 -44.5t-53.5 -33.5t-51 -21.5t-32.5 -7.5
q-10 0 -10 4q0 8 25 19q12 4 36.5 25.5t50 52t46 65.5t22.5 68q10 6 19.5 25.5t9.5 37.5t12 23q8 0 23.5 -14.5t42.5 -53.5q16 -25 29.5 -33t29.5 -8q39 0 39 33q0 14 -9 42t-22.5 59.5t-30 63.5t-30.5 54zM1513 799q8 23 13 22q4 0 10 -7t10 -15l133 -307q14 -37 42 -66
t59 -29q0 25 7 52.5t21.5 51t34 40t43.5 16.5q20 0 40 -13.5t34 -31.5t23.5 -34.5t9.5 -22.5q0 -10 -6 -11q-6 0 -15 7l-20 14q-27 23 -68 22q-23 0 -39 -9t-16 -27q0 -12 8 -22.5t18.5 -18t20.5 -12.5t14 -5l109 6q27 0 26 -16q0 -18 -22 -64q-12 -2 -45 -6t-69 -7
t-67.5 -6t-43.5 -3q-39 0 -69 17.5t-56 82.5h-4q-16 -59 -39 -80.5t-43 -21.5q-35 0 -58.5 19.5t-25.5 41.5h-4q-8 -37 -37 -53t-74 -16t-90 22.5t-61 63.5q-45 -29 -87.5 -41.5t-76.5 -12.5q-33 2 -52.5 13.5t-19.5 32.5q0 4 3 16t7 25.5t10.5 24.5t12.5 15l116 86l-30 52
l12 57q2 8 5 15.5t11 7.5q12 0 21 -21l98 -186q14 -27 46 -44.5t68 -23.5t67.5 -1t44.5 22l10 57q2 20 10 20q10 0 10 -18q0 -16 12.5 -34.5t30 -30t37 -12.5t33.5 18q0 27 -4 54.5t-16.5 64t-36 86t-60.5 120.5zM197 483q6 6 10 19.5t6 23.5q4 27 10 27q10 0 21 -25
l67 -137q14 -29 32.5 -47t55.5 -18q27 0 27 8q0 12 -21.5 50t-46 81t-46 83t-21.5 56q0 8 3 21.5t8 26t10 21.5t10 9q10 0 16 -14q4 -12 24.5 -40t43.5 -50q14 -12 18 -18.5t4 -8.5q0 -14 -37 -14q25 -47 40 -76t23.5 -50.5t11.5 -37t3 -33.5q0 -113 -76 -113
q-45 0 -70.5 20.5t-39.5 67.5q-55 -35 -101 -34q-35 0 -48 7t-13 19q0 14 3 34.5t9 29.5q8 12 32.5 34.5t53.5 38.5zM821 854l-4 25q-2 12 -7 27.5t-13.5 37t-22.5 52t-35 75.5q-51 106 -74.5 160.5t-21.5 73.5q4 51 14.5 74.5t16.5 23.5q8 0 14 -17q2 -4 11.5 -16
t21.5 -27.5t26.5 -30t26.5 -22.5q25 -18 25 -24q0 -10 -68 -2q31 -68 51.5 -117t32.5 -87t17.5 -70t5.5 -62q0 -16 -1 -32.5t-10 -37.5zM514 553q51 -102 70.5 -156.5t19.5 -93.5q0 -14 -6 -47t-10 -47q-6 -16 -15 -16l-4 2v16q0 33 -4 60.5t-14 50.5l-96 190
q-12 29 -24.5 62.5t-12.5 43.5q0 6 3 20.5t8 28t11 23.5t13 10q4 0 14 -18q2 -8 13.5 -23.5t23.5 -32t24.5 -29.5t20.5 -17q16 -10 21 -16.5t5 -10.5q0 -8 -20 -8q-6 0 -17.5 3t-19.5 9zM903 371q0 -47 -12 -77t-29.5 -47.5t-35 -23.5t-29.5 -6q-55 0 -101.5 4t-46.5 8
q0 6 10.5 9.5t32.5 9.5q18 2 47 15t57.5 29.5t49 35t20.5 30.5q0 6 -6 13.5t-14 11.5q-10 -4 -26.5 -5t-31 2t-24.5 12t-10 26q0 6 3 24.5t11 38t19.5 33.5t27.5 14q25 0 56.5 -39.5t31.5 -117.5zM2015 -170q0 -47 -12 -76.5t-29.5 -47t-35 -24t-27.5 -6.5q-20 0 -46 2.5
t-48.5 5.5t-38 6t-17.5 5q-10 4 -10 6q0 6 10 6q37 4 76 16.5t70.5 28t51 32.5t19.5 34q0 6 -7 14t-13 10q-10 -2 -25.5 -3t-30 2t-24.5 11.5t-10 24.5q0 37 16.5 73t42.5 36q25 0 56.5 -38t31.5 -118zM1921 1364q-41 -25 -96.5 -52.5t-113.5 -54t-113.5 -51t-98.5 -43.5
q18 -12 15 -33.5t-15 -42t-27.5 -37t-23.5 -18.5h-10l-2 4q0 6 4 13.5t8 15.5l8 18q4 12 4 19q0 12 -7 17t-16.5 6t-16.5 1t-7 4q0 6 7 17.5t36 34.5l39 30l461 203zM772 10l315 125q47 20 86 41t66 35q12 8 16.5 4t-2.5 -12l-24 -33q-25 -20 -83.5 -51t-123.5 -60l-213 -88
q12 -18 8 -36.5t-15 -34t-26.5 -24.5t-25.5 -9q23 29 18.5 54.5t-27.5 29.5q-8 0 -9 6t3 10zM1176 1303q41 14 94 35.5t109.5 46t110.5 50t97 48.5q-18 -53 -86 -84l-371 -170zM1399 213l84 -43l28 57l82 -49l-45 -78l-71 39l-35 -53l-82 39zM352 803q20 0 47 11t53.5 23.5
t47 23.5t26.5 11q16 0 29.5 -10t13.5 -22q0 -10 -5 -19.5t-9 -15.5q-12 14 -33 14q-12 0 -29.5 -11t-38 -23.5t-43 -23.5t-42.5 -11q0 -35 -3.5 -49.5t-9.5 -16.5q-4 29 -26.5 55.5t-48.5 36.5q-14 51 4 51q8 0 27.5 -12t39.5 -12zM1864 1012q-41 0 -85 -27t-61 -51h70
q55 0 109.5 2t89.5 8q-4 8 -17.5 19.5t-32 22.5t-39 18.5t-34.5 7.5zM1989 188q12 6 27.5 14.5t21.5 12.5q-2 -18 -14.5 -39.5t-28.5 -28.5l-277 -131l19 56zM1260 -293q14 0 21 -11t19 -11q23 0 32 17t14 17q8 0 8 -13t16 -13l8 2q0 23 15 29q6 -6 6 -21q0 -37 -24.5 -43
t-37.5 10q-12 -23 -47 -22q-18 0 -21 11t-20 11q-8 0 -21.5 -10t-35.5 -22q-20 -14 -50 -24.5t-71 -10.5q-61 0 -61 10q0 6 18 6q41 0 79 13.5t68.5 31t52.5 30.5t32 13zM2028 776l-25 -45q-4 -10 -31 -22l-274 -125l22 51zM346 1382q14 0 14 15q0 8 -5 17t-5 16q0 18 10 18
q8 0 13 -12q8 -31 18 -39t27 -6q-4 4 -9.5 18t-5.5 18q0 18 17 31q27 -37 26 -67q0 -18 -7 -27.5t-16 -11.5t-20.5 1t-17.5 7q-6 -12 -20.5 -17.5t-28.5 0t-25.5 18.5t-11.5 38q0 33 18 33q0 -50 29 -50zM805 584q-16 -12 -34.5 -25.5t-72.5 -42.5l-106 -57l20 51
q16 6 47 22.5t66 35t65.5 38t47.5 31.5zM1151 506q-12 -25 -43 -50.5t-68 -43.5v-4q41 -2 80 -2t80 6zM236 1104q-12 -20 -35 -41t-39 -31q10 -10 46 -8t64 6zM238 418l-72 -62q31 -6 53 -6q12 0 25.5 3t23.5 5zM274 -121q0 -29 11.5 -62.5t40.5 -33.5q14 0 28 8z" />
    <glyph glyph-name="afii57392.pnum" horiz-adv-x="632" 
d="M324 412q0 -72 74 -72q72 0 71 72q0 74 -71 73q-74 1 -74 -73zM224 240q-72 70 -72 172t72 174q72 74 174 73q102 0 174 -73q72 -72 72 -174t-72 -172q-72 -74 -174 -74q-100 0 -174 74z" />
    <glyph glyph-name="afii57393.pnum" horiz-adv-x="552" 
d="M378 1462v-1462h-174v1462h174z" />
    <glyph glyph-name="afii57394.pnum" horiz-adv-x="948" 
d="M869 1464v-438q0 -172 -86 -235q-59 -45 -189 -46h-127q-84 0 -102 7v-752h-172v1464h172v-446q0 -59 20 -80q18 -20 84 -20h125q63 0 84 20q18 18 19 80v446h172z" />
    <glyph glyph-name="afii57395.pnum" horiz-adv-x="1124" 
d="M1179 1462v-438q0 -172 -88 -236q-59 -45 -188 -45h-33q-139 0 -188 45q-45 -45 -189 -45h-18q-86 0 -102 7v-750h-172v1462h172v-446q0 -59 20 -80q18 -18 84 -18h18q66 0 84 18q16 18 17 80v446h174v-446q0 -59 18 -80q18 -18 84 -18h31q66 0 84 18t18 80v446h174z" />
    <glyph glyph-name="afii57396.pnum" horiz-adv-x="837" 
d="M893 0h-150q-418 0 -549 129q-98 96 -98 258q0 182 127 295q59 55 98 72q-4 2 -43 37q-117 106 -116 272q0 172 104 274q129 127 477 125h51v-178h-51q-274 2 -350 -74q-49 -47 -49 -147q0 -88 57 -143q86 -78 283 -91h110v-178h-141q-213 -12 -309 -98q-68 -63 -68 -166
q0 -88 45 -131q80 -80 572 -78v-178z" />
    <glyph glyph-name="afii57397.pnum" horiz-adv-x="1089" 
d="M568 0q-74 0 -146 26.5t-126 89t-88 164t-34 255.5q0 256 31 432t84 284.5t126 159.5t155 51t155.5 -48t126.5 -158.5t85 -286.5t32 -434q0 -154 -35 -256.5t-91 -165t-129.5 -88t-145.5 -25.5zM570 190q51 0 92 14.5t70.5 50.5t49 105.5t19.5 182.5q0 195 -21.5 337
t-55.5 234t-73.5 134t-80.5 42q-39 0 -79 -42t-75 -134t-56.5 -234.5t-21.5 -336.5q0 -113 19.5 -181.5t50 -105.5t73 -51.5t89.5 -14.5z" />
    <glyph glyph-name="afii57398.pnum" horiz-adv-x="884" 
d="M729 1384q115 -92 115 -249v-1135h-181v1135q0 70 -47 108q-47 39 -125 39h-422v180h422q142 0 238 -78z" />
    <glyph glyph-name="afii57399.pnum" horiz-adv-x="1034" 
d="M1090 1462l-426 -1462h-174l-424 1462h178l332 -1173l327 1173h187z" />
    <glyph glyph-name="afii57400.pnum" horiz-adv-x="1034" 
d="M903 0l-327 1171l-332 -1171h-178l424 1462h174l426 -1462h-187z" />
    <glyph glyph-name="afii57401.pnum" horiz-adv-x="880" 
d="M655 1149q0 70 -47 108q-47 39 -125 39q-231 0 -231 -194q0 -115 61 -158q109 -74 342 -4v209zM721 1384q115 -92 115 -249v-1135h-181v739q-276 -72 -444 43q-139 96 -139 305q0 174 131 279q119 96 280 96q144 0 238 -78z" />
    <glyph glyph-name="uni06F0.pnum" horiz-adv-x="632" 
d="M324 412q0 -72 74 -72q72 0 71 72q0 74 -71 73q-74 1 -74 -73zM224 240q-72 70 -72 172t72 174q72 74 174 73q102 0 174 -73q72 -72 72 -174t-72 -172q-72 -74 -174 -74q-100 0 -174 74z" />
    <glyph glyph-name="uni06F1.pnum" horiz-adv-x="552" 
d="M378 1462v-1462h-174v1462h174z" />
    <glyph glyph-name="uni06F2.pnum" horiz-adv-x="948" 
d="M869 1464v-438q0 -172 -86 -235q-59 -45 -189 -46h-127q-84 0 -102 7v-752h-172v1464h172v-446q0 -59 20 -80q18 -20 84 -20h125q63 0 84 20q18 18 19 80v446h172z" />
    <glyph glyph-name="uni06F3.pnum" horiz-adv-x="1124" 
d="M1179 1462v-438q0 -172 -88 -236q-59 -45 -188 -45h-33q-139 0 -188 45q-45 -45 -189 -45h-18q-86 0 -102 7v-750h-172v1462h172v-446q0 -59 20 -80q18 -18 84 -18h18q66 0 84 18q16 18 17 80v446h174v-446q0 -59 18 -80q18 -18 84 -18h31q66 0 84 18t18 80v446h174z" />
    <glyph glyph-name="uni06F4.pnum" horiz-adv-x="1034" 
d="M1153 1176q-158 109 -307 112q-68 2 -110.5 -39t-53.5 -104q-12 -197 15 -213q23 -16 163 -17h304v-172h-545q-145 2 -158 2q-39 0 -92 7l-2 -752h-172v1462h172v-446q0 -66 67 -84q29 -10 72 -10q-8 25 -8 127q0 217 121 327q92 86 223 86h12q150 0 299 -96v-190z" />
    <glyph glyph-name="uni06F5.pnum" horiz-adv-x="978" 
d="M973 186q74 51 53 201q-55 412 -377 795q-283 -326 -344 -795q-20 -150 51 -201q70 -47 162 0q61 33 61 80v322h170v-322q0 -47 62 -80q94 -47 162 0zM1194 410q35 -254 -123 -363q-74 -51 -172 -51q-86 0 -166 39q-49 27 -68 47q-18 -20 -69 -47q-78 -39 -164 -39
q-98 0 -174 51q-156 109 -121 363q68 535 397 901q-18 23 -51 45l117 129q514 -475 594 -1075z" />
    <glyph glyph-name="uni06F6.pnum" horiz-adv-x="675" 
d="M215 -14l-141 120l436 508q-37 14 -100 72l-21 16q-182 158 -186 338q-2 139 90 248l10 10q109 125 293 181l156 -138q-231 -76 -307 -163l-6 -9q-45 -51 -41 -127q2 -100 106 -196q90 -76 125 -66q33 8 135 127l217 252l139 -123z" />
    <glyph glyph-name="uni06F7.pnum" horiz-adv-x="1034" 
d="M1090 1462l-426 -1462h-174l-424 1462h178l332 -1173l327 1173h187z" />
    <glyph glyph-name="uni06F8.pnum" horiz-adv-x="1034" 
d="M903 0l-327 1171l-332 -1171h-178l424 1462h174l426 -1462h-187z" />
    <glyph glyph-name="uni06F9.pnum" horiz-adv-x="880" 
d="M655 1149q0 70 -47 108q-47 39 -125 39q-231 0 -231 -194q0 -115 61 -158q109 -74 342 -4v209zM721 1384q115 -92 115 -249v-1135h-181v739q-276 -72 -444 43q-139 96 -139 305q0 174 131 279q119 96 280 96q144 0 238 -78z" />
    <glyph glyph-name="uni06F4.locl" horiz-adv-x="921" 
d="M258 0h-168v985q0 55 18.5 104.5t52.5 86t82 58t107 21.5q53 0 94 -16t71 -40.5t51.5 -55.5t37.5 -60q41 43 92.5 82t116.5 72l82 -129q-53 -27 -96 -51.5t-82 -51t-75 -55t-75 -61.5q-45 111 -108.5 161t-110.5 50q-41 0 -65.5 -31t-24.5 -72v-997z" />
    <glyph glyph-name="uni06F7.locl" horiz-adv-x="921" 
d="M100 156q100 217 211 434l312 651h153l-512 -1083h514v-158h-680z" />
    <glyph glyph-name="uni06F4.locl.pnum" horiz-adv-x="1019" 
d="M362 0h-168v985q0 55 18.5 104.5t52.5 86t82 58t107 21.5q53 0 94 -16t71 -40.5t51.5 -55.5t37.5 -60q41 43 92.5 82t116.5 72l82 -129q-53 -27 -96 -51.5t-82 -51t-75 -55t-75 -61.5q-45 111 -108.5 161t-110.5 50q-41 0 -65.5 -31t-24.5 -72v-997z" />
    <glyph glyph-name="uni06F7.locl.pnum" horiz-adv-x="806" 
d="M71 156q100 217 211 434l312 651h153l-512 -1083h514v-158h-680z" />
    <glyph glyph-name="glyph541" horiz-adv-x="1798" 
d="M1655 0h-1241q-119 0 -198 16.5t-127 52t-68.5 92t-20.5 138.5v317h168v-256q0 -63 15.5 -101t52 -57.5t100 -25.5t162.5 -6h989v618h168v-788z" />
    <glyph glyph-name="glyph542" horiz-adv-x="1832" 
d="M1833 0q-80 0 -129 38t-66 95q-18 -43 -48.5 -68.5t-77 -40t-112 -19.5t-153.5 -5h-833q-119 0 -198 16.5t-127 52t-68.5 92t-20.5 138.5v317h168v-256q0 -63 15.5 -101t52 -57.5t100 -25.5t162.5 -6h747q68 0 115 4t74.5 19.5t40 45t12.5 80.5v469h168v-393q0 -51 7 -93
t27.5 -70.5t55.5 -45t88 -16.5q82 0 82 -82q0 -51 -19.5 -69.5t-62.5 -18.5z" />
    <glyph glyph-name="glyph543" horiz-adv-x="2052" 
d="M1313 412q0 -125 73.5 -183.5t180.5 -58.5h196v205q0 49 -9 99t-33.5 90t-67.5 65.5t-109 25.5q-55 0 -98 -19.5t-73 -52t-45 -77.5t-15 -94zM1208 170q-23 43 -39 95t-16 120q0 80 26.5 158t78 138t126 98t172.5 38q113 0 184.5 -41t113.5 -104.5t58.5 -140t16.5 -150.5
v-381h-1515q-119 0 -198 16.5t-127 52t-68.5 92t-20.5 138.5v317h168v-256q0 -63 15.5 -101t52 -57.5t100 -25.5t162.5 -6h710z" />
    </font>
</defs>
</svg>
